<?xml version="1.0" encoding="UTF-8" standalone="no"?>
<!-- Generator: Adobe Illustrator 29.2.0, SVG Export Plug-In . SVG Version: 9.03 Build 55982)  -->

<svg
   version="1.1"
   x="0px"
   y="0px"
   viewBox="0 0 160.404 77.499"
   style="enable-background:new 0 0 160.404 77.499;"
   xml:space="preserve"
   id="svg1955"
   sodipodi:docname="SM_ButtonRed.svg"
   inkscape:version="1.1.2 (b8e25be833, 2022-02-05)"
   xmlns:inkscape="http://www.inkscape.org/namespaces/inkscape"
   xmlns:sodipodi="http://sodipodi.sourceforge.net/DTD/sodipodi-0.dtd"
   xmlns="http://www.w3.org/2000/svg"
   xmlns:svg="http://www.w3.org/2000/svg"><defs
   id="defs1959" /><sodipodi:namedview
   id="namedview1957"
   pagecolor="#ffffff"
   bordercolor="#666666"
   borderopacity="1.0"
   inkscape:pageshadow="2"
   inkscape:pageopacity="0.0"
   inkscape:pagecheckerboard="0"
   showgrid="false"
   inkscape:zoom="6.7080619"
   inkscape:cx="80.127466"
   inkscape:cy="38.759333"
   inkscape:window-width="1920"
   inkscape:window-height="1017"
   inkscape:window-x="-8"
   inkscape:window-y="-8"
   inkscape:window-maximized="1"
   inkscape:current-layer="g1947" />
<font
   horiz-adv-x="1000"
   id="font1942">
<!-- Copyright 2011 The Montserrat Project Authors \(https://github.com/JulietaUla/Montserrat\) -->
<!-- Copyright: Copyright 2025 Adobe System Incorporated. All rights reserved. -->
<font-face
   font-family="Montserrat-ExtraBold"
   units-per-em="1000"
   underline-position="-100"
   underline-thickness="50"
   id="font-face2" />
<missing-glyph
   horiz-adv-x="587"
   d="M40,0l507,0l0,700l-507,0M120,70l0,560l347,0l0,-560z"
   id="missing-glyph4" />
<glyph
   unicode="A"
   horiz-adv-x="786"
   d="M594,0l206,0l-310,700l-195,0l-309,-700l202,0l55,136l296,0M301,282l90,224l90,-224z"
   id="glyph6" />
<glyph
   unicode="Æ"
   horiz-adv-x="1099"
   d="M693,153l0,128l311,0l0,148l-311,0l0,118l353,0l0,153l-678,0l-382,-700l202,0l71,136l238,0l0,-136l562,0l0,153M336,282l138,265l23,0l0,-265z"
   id="glyph8" />
<glyph
   unicode="Ǽ"
   horiz-adv-x="1099"
   d="M821,909l-190,0l-134,-152l136,0M693,153l0,128l311,0l0,148l-311,0l0,118l353,0l0,153l-678,0l-382,-700l202,0l71,136l238,0l0,-136l562,0l0,153M336,282l138,265l23,0l0,-265z"
   id="glyph10" />
<glyph
   unicode="Á"
   horiz-adv-x="786"
   d="M619,909l-190,0l-134,-152l136,0M594,0l206,0l-310,700l-195,0l-309,-700l202,0l55,136l296,0M301,282l90,224l90,-224z"
   id="glyph12" />
<glyph
   unicode="Ă"
   horiz-adv-x="786"
   d="M393,748C505,748 585,810 589,909l-116,0C471,869 437,843 393,843C349,843 315,869 313,909l-116,0C201,810 281,748 393,748M594,0l206,0l-310,700l-195,0l-309,-700l202,0l55,136l296,0M301,282l90,224l90,-224z"
   id="glyph14" />
<glyph
   unicode="Â"
   horiz-adv-x="786"
   d="M393,833l86,-76l126,0l-130,152l-164,0l-130,-152l126,0M594,0l206,0l-310,700l-195,0l-309,-700l202,0l55,136l296,0M301,282l90,224l90,-224z"
   id="glyph16" />
<glyph
   unicode="Ä"
   horiz-adv-x="786"
   d="M287,756C332,756 366,787 366,834C366,881 332,913 287,913C242,913 208,881 208,834C208,787 242,756 287,756M499,756C544,756 578,787 578,834C578,881 544,913 499,913C454,913 420,881 420,834C420,787 454,756 499,756M594,0l206,0l-310,700l-195,0l-309,-700l202,0l55,136l296,0M301,282l90,224l90,-224z"
   id="glyph18" />
<glyph
   unicode="À"
   horiz-adv-x="786"
   d="M491,757l-134,152l-190,0l188,-152M594,0l206,0l-310,700l-195,0l-309,-700l202,0l55,136l296,0M301,282l90,224l90,-224z"
   id="glyph20" />
<glyph
   unicode="Ā"
   horiz-adv-x="786"
   d="M590,884l-394,0l0,-102l394,0M594,0l206,0l-310,700l-195,0l-309,-700l202,0l55,136l296,0M301,282l90,224l90,-224z"
   id="glyph22" />
<glyph
   unicode="Ą"
   horiz-adv-x="786"
   d="M800,-131C785,-139 762,-146 740,-146C704,-146 685,-128 685,-102C685,-68 714,-38 800,0l-310,700l-195,0l-309,-700l202,0l55,136l296,0l55,-136l45,0C593,-33 570,-74 570,-119C570,-189 624,-236 718,-236C758,-236 800,-226 825,-213M301,282l90,224l90,-224z"
   id="glyph24" />
<glyph
   unicode="Å"
   horiz-adv-x="786"
   d="M393,749C467,749 525,805 525,876C525,947 467,1004 393,1004C318,1004 261,947 261,876C261,805 318,749 393,749M393,934C425,934 450,910 450,876C450,843 425,819 393,819C361,819 336,843 336,876C336,910 361,934 393,934M594,0l206,0l-310,700l-195,0l-309,-700l202,0l55,136l296,0M301,282l90,224l90,-224z"
   id="glyph26" />
<glyph
   unicode="Ǻ"
   horiz-adv-x="786"
   d="M393,749C467,749 525,805 525,876C525,899 519,920 508,939l116,79l-93,70l-89,-93C427,1001 410,1004 393,1004C318,1004 261,947 261,876C261,805 318,749 393,749M393,934C425,934 450,910 450,876C450,843 425,819 393,819C361,819 336,843 336,876C336,910 361,934 393,934M594,0l206,0l-310,700l-195,0l-309,-700l202,0l55,136l296,0M301,282l90,224l90,-224z"
   id="glyph28" />
<glyph
   unicode="Ã"
   horiz-adv-x="786"
   d="M327,812C363,812 400,750 471,750C548,750 596,813 598,907l-93,0C503,876 486,857 459,857C423,857 386,918 315,918C238,918 190,856 188,759l93,0C283,792 300,812 327,812M594,0l206,0l-310,700l-195,0l-309,-700l202,0l55,136l296,0M301,282l90,224l90,-224z"
   id="glyph30" />
<glyph
   unicode="B"
   horiz-adv-x="769"
   d="M608,365C668,396 702,450 702,517C702,625 612,700 428,700l-358,0l0,-700l378,0C636,0 736,71 736,192C736,277 687,337 608,365M402,557C468,557 502,534 502,490C502,445 468,422 402,422l-136,0l0,135M432,143l-166,0l0,142l166,0C500,285 536,262 536,214C536,166 500,143 432,143z"
   id="glyph32" />
<glyph
   unicode="C"
   horiz-adv-x="738"
   d="M419,-14C548,-14 652,33 720,118l-126,114C550,179 496,150 429,150C314,150 234,230 234,350C234,470 314,550 429,550C496,550 550,521 594,468l126,114C652,667 548,714 419,714C197,714 34,563 34,350C34,137 197,-14 419,-14z"
   id="glyph34" />
<glyph
   unicode=" "
   horiz-adv-x="291"
   id="glyph36" />
<glyph
   unicode="Ć"
   horiz-adv-x="738"
   d="M318,758l136,0l188,152l-190,0M419,-14C548,-14 652,33 720,118l-126,114C550,179 496,150 429,150C314,150 234,230 234,350C234,470 314,550 429,550C496,550 550,521 594,468l126,114C652,667 548,714 419,714C197,714 34,563 34,350C34,137 197,-14 419,-14z"
   id="glyph38" />
<glyph
   unicode="Č"
   horiz-adv-x="738"
   d="M498,758l130,152l-126,0l-86,-76l-86,76l-126,0l130,-152M429,150C314,150 234,230 234,350C234,470 314,550 429,550C496,550 550,521 594,468l126,114C652,667 548,714 419,714C197,714 34,563 34,350C34,137 197,-14 419,-14C548,-14 652,33 720,118l-126,114C550,179 496,150 429,150z"
   id="glyph40" />
<glyph
   unicode="Ç"
   horiz-adv-x="738"
   d="M429,150C314,150 234,230 234,350C234,470 314,550 429,550C496,550 550,521 594,468l126,114C652,667 548,714 419,714C197,714 34,563 34,350C34,163 160,23 341,-8l-22,-93l37,0C388,-101 401,-111 401,-126C401,-142 387,-154 351,-154C327,-154 306,-148 289,-140l-26,-75C285,-227 324,-236 358,-236C453,-236 516,-196 516,-132C516,-95 492,-58 430,-51l9,37C559,-9 656,37 720,118l-126,114C550,179 496,150 429,150z"
   id="glyph42" />
<glyph
   unicode="Ĉ"
   horiz-adv-x="738"
   d="M416,834l86,-76l126,0l-130,152l-164,0l-130,-152l126,0M429,150C314,150 234,230 234,350C234,470 314,550 429,550C496,550 550,521 594,468l126,114C652,667 548,714 419,714C197,714 34,563 34,350C34,137 197,-14 419,-14C548,-14 652,33 720,118l-126,114C550,179 496,150 429,150z"
   id="glyph44" />
<glyph
   unicode="Ċ"
   horiz-adv-x="738"
   d="M416,756C474,756 515,797 515,855C515,912 474,953 416,953C358,953 317,912 317,855C317,797 358,756 416,756M419,-14C548,-14 652,33 720,118l-126,114C550,179 496,150 429,150C314,150 234,230 234,350C234,470 314,550 429,550C496,550 550,521 594,468l126,114C652,667 548,714 419,714C197,714 34,563 34,350C34,137 197,-14 419,-14z"
   id="glyph46" />
<glyph
   unicode="D"
   horiz-adv-x="826"
   d="M70,0l331,0C633,0 792,135 792,350C792,565 633,700 401,700l-331,0M268,158l0,384l125,0C512,542 592,471 592,350C592,229 512,158 393,158z"
   id="glyph48" />
<glyph
   unicode="Ď"
   horiz-adv-x="826"
   d="M447,757l130,152l-126,0l-86,-76l-86,76l-126,0l130,-152M401,700l-331,0l0,-700l331,0C633,0 792,135 792,350C792,565 633,700 401,700M393,158l-125,0l0,384l125,0C512,542 592,471 592,350C592,229 512,158 393,158z"
   id="glyph50" />
<glyph
   unicode="Đ"
   horiz-adv-x="843"
   d="M418,700l-331,0l0,-284l-90,0l0,-122l90,0l0,-294l331,0C650,0 809,135 809,350C809,565 650,700 418,700M410,158l-125,0l0,136l162,0l0,122l-162,0l0,126l125,0C529,542 609,471 609,350C609,229 529,158 410,158z"
   id="glyph52" />
<glyph
   unicode="E"
   horiz-adv-x="672"
   d="M266,153l0,128l311,0l0,148l-311,0l0,118l353,0l0,153l-549,0l0,-700l562,0l0,153z"
   id="glyph54" />
<glyph
   unicode="É"
   horiz-adv-x="672"
   d="M571,909l-190,0l-134,-152l136,0M266,153l0,128l311,0l0,148l-311,0l0,118l353,0l0,153l-549,0l0,-700l562,0l0,153z"
   id="glyph56" />
<glyph
   unicode="Ĕ"
   horiz-adv-x="672"
   d="M345,748C457,748 537,810 541,909l-116,0C423,869 389,843 345,843C301,843 267,869 265,909l-116,0C153,810 233,748 345,748M266,153l0,128l311,0l0,148l-311,0l0,118l353,0l0,153l-549,0l0,-700l562,0l0,153z"
   id="glyph58" />
<glyph
   unicode="Ě"
   horiz-adv-x="672"
   d="M427,757l130,152l-126,0l-86,-76l-86,76l-126,0l130,-152M266,153l0,128l311,0l0,148l-311,0l0,118l353,0l0,153l-549,0l0,-700l562,0l0,153z"
   id="glyph60" />
<glyph
   unicode="Ê"
   horiz-adv-x="672"
   d="M345,833l86,-76l126,0l-130,152l-164,0l-130,-152l126,0M266,153l0,128l311,0l0,148l-311,0l0,118l353,0l0,153l-549,0l0,-700l562,0l0,153z"
   id="glyph62" />
<glyph
   unicode="Ë"
   horiz-adv-x="672"
   d="M239,756C284,756 318,787 318,834C318,881 284,913 239,913C194,913 160,881 160,834C160,787 194,756 239,756M451,756C496,756 530,787 530,834C530,881 496,913 451,913C406,913 372,881 372,834C372,787 406,756 451,756M266,153l0,128l311,0l0,148l-311,0l0,118l353,0l0,153l-549,0l0,-700l562,0l0,153z"
   id="glyph64" />
<glyph
   unicode="Ė"
   horiz-adv-x="672"
   d="M345,755C403,755 444,796 444,854C444,911 403,952 345,952C287,952 246,911 246,854C246,796 287,755 345,755M266,153l0,128l311,0l0,148l-311,0l0,118l353,0l0,153l-549,0l0,-700l562,0l0,153z"
   id="glyph66" />
<glyph
   unicode="È"
   horiz-adv-x="672"
   d="M443,757l-134,152l-190,0l188,-152M266,153l0,128l311,0l0,148l-311,0l0,118l353,0l0,153l-549,0l0,-700l562,0l0,153z"
   id="glyph68" />
<glyph
   unicode="Ē"
   horiz-adv-x="672"
   d="M542,884l-394,0l0,-102l394,0M266,153l0,128l311,0l0,148l-311,0l0,118l353,0l0,153l-549,0l0,-700l562,0l0,153z"
   id="glyph70" />
<glyph
   unicode="Ŋ"
   horiz-adv-x="806"
   d="M542,700l0,-373l-309,373l-163,0l0,-700l194,0l0,373l277,-335C536,-17 507,-45 455,-45C422,-45 394,-32 368,-10l-91,-134C328,-184 394,-203 469,-203C644,-203 736,-113 736,86l0,614z"
   id="glyph72" />
<glyph
   unicode="Ę"
   horiz-adv-x="672"
   d="M632,-131C617,-139 594,-146 572,-146C536,-146 517,-128 517,-102C517,-68 546,-38 632,0l0,153l-366,0l0,128l311,0l0,148l-311,0l0,118l353,0l0,153l-549,0l0,-700l401,0C425,-33 402,-74 402,-119C402,-189 456,-236 550,-236C590,-236 632,-226 657,-213z"
   id="glyph74" />
<glyph
   unicode="Ð"
   horiz-adv-x="843"
   d="M418,700l-331,0l0,-284l-90,0l0,-122l90,0l0,-294l331,0C650,0 809,135 809,350C809,565 650,700 418,700M410,158l-125,0l0,136l162,0l0,122l-162,0l0,126l125,0C529,542 609,471 609,350C609,229 529,158 410,158z"
   id="glyph76" />
<glyph
   unicode="€"
   horiz-adv-x="827"
   d="M518,150C447,150 389,180 356,232l214,0l0,98l-246,0C323,337 323,343 323,350C323,357 323,363 324,370l246,0l0,98l-214,0C389,520 447,550 518,550C585,550 639,521 683,468l126,114C741,667 637,714 508,714C331,714 190,617 141,468l-111,0l0,-98l93,0C123,363 123,357 123,350l0,-20l-93,0l0,-98l111,0C190,83 331,-14 508,-14C637,-14 741,33 809,118l-126,114C639,179 585,150 518,150z"
   id="glyph78" />
<glyph
   unicode="F"
   horiz-adv-x="642"
   d="M619,547l0,153l-549,0l0,-700l198,0l0,240l309,0l0,153l-309,0l0,154z"
   id="glyph80" />
<glyph
   unicode="G"
   horiz-adv-x="770"
   d="M539,173C504,157 469,150 432,150C314,150 234,232 234,350C234,471 314,550 434,550C501,550 556,525 604,472l126,114C661,669 555,714 424,714C197,714 34,563 34,350C34,137 197,-14 420,-14C522,-14 633,17 714,75l0,290l-175,0z"
   id="glyph82" />
<glyph
   unicode="Ğ"
   horiz-adv-x="770"
   d="M420,749C532,749 612,811 616,910l-116,0C498,870 464,844 420,844C376,844 342,870 340,910l-116,0C228,811 308,749 420,749M539,173C504,157 469,150 432,150C314,150 234,232 234,350C234,471 314,550 434,550C501,550 556,525 604,472l126,114C661,669 555,714 424,714C197,714 34,563 34,350C34,137 197,-14 420,-14C522,-14 633,17 714,75l0,290l-175,0z"
   id="glyph84" />
<glyph
   unicode="Ǧ"
   horiz-adv-x="770"
   d="M502,758l130,152l-126,0l-86,-76l-86,76l-126,0l130,-152M539,173C504,157 469,150 432,150C314,150 234,232 234,350C234,471 314,550 434,550C501,550 556,525 604,472l126,114C661,669 555,714 424,714C197,714 34,563 34,350C34,137 197,-14 420,-14C522,-14 633,17 714,75l0,290l-175,0z"
   id="glyph86" />
<glyph
   unicode="Ĝ"
   horiz-adv-x="770"
   d="M420,834l86,-76l126,0l-130,152l-164,0l-130,-152l126,0M539,173C504,157 469,150 432,150C314,150 234,232 234,350C234,471 314,550 434,550C501,550 556,525 604,472l126,114C661,669 555,714 424,714C197,714 34,563 34,350C34,137 197,-14 420,-14C522,-14 633,17 714,75l0,290l-175,0z"
   id="glyph88" />
<glyph
   unicode="Ģ"
   horiz-adv-x="770"
   d="M539,173C504,157 469,150 432,150C314,150 234,232 234,350C234,471 314,550 434,550C501,550 556,525 604,472l126,114C661,669 555,714 424,714C197,714 34,563 34,350C34,137 197,-14 420,-14C522,-14 633,17 714,75l0,290l-175,0M408,-62C359,-62 329,-89 329,-129C329,-158 342,-179 369,-189l-26,-79l86,0l37,67C484,-169 487,-147 487,-129C487,-89 457,-62 408,-62z"
   id="glyph90" />
<glyph
   unicode="Ġ"
   horiz-adv-x="770"
   d="M420,756C478,756 519,797 519,855C519,912 478,953 420,953C362,953 321,912 321,855C321,797 362,756 420,756M539,173C504,157 469,150 432,150C314,150 234,232 234,350C234,471 314,550 434,550C501,550 556,525 604,472l126,114C661,669 555,714 424,714C197,714 34,563 34,350C34,137 197,-14 420,-14C522,-14 633,17 714,75l0,290l-175,0z"
   id="glyph92" />
<glyph
   unicode="H"
   horiz-adv-x="806"
   d="M538,700l0,-263l-270,0l0,263l-198,0l0,-700l198,0l0,273l270,0l0,-273l198,0l0,700z"
   id="glyph94" />
<glyph
   unicode="Ħ"
   horiz-adv-x="840"
   d="M843,630l-90,0l0,70l-198,0l0,-70l-270,0l0,70l-198,0l0,-70l-91,0l0,-121l91,0l0,-509l198,0l0,273l270,0l0,-273l198,0l0,509l90,0M555,437l-270,0l0,72l270,0z"
   id="glyph96" />
<glyph
   unicode="Ĥ"
   horiz-adv-x="806"
   d="M403,833l86,-76l126,0l-130,152l-164,0l-130,-152l126,0M538,700l0,-263l-270,0l0,263l-198,0l0,-700l198,0l0,273l270,0l0,-273l198,0l0,700z"
   id="glyph98" />
<glyph
   unicode="I"
   horiz-adv-x="339"
   d="M70,0l198,0l0,700l-198,0z"
   id="glyph100" />
<glyph
   unicode="Ĳ"
   horiz-adv-x="727"
   d="M328,-14C529,-14 662,103 662,320l0,380l-198,0l0,-391C464,198 417,147 321,147C257,147 183,169 119,211l-72,-144C116,18 215,-14 328,-14M64,329l198,0l0,371l-198,0z"
   id="glyph102" />
<glyph
   unicode="Í"
   horiz-adv-x="339"
   d="M71,757l136,0l188,152l-190,0M70,0l198,0l0,700l-198,0z"
   id="glyph104" />
<glyph
   unicode="Ĭ"
   horiz-adv-x="339"
   d="M169,748C281,748 361,810 365,909l-116,0C247,869 213,843 169,843C125,843 91,869 89,909l-116,0C-23,810 57,748 169,748M70,0l198,0l0,700l-198,0z"
   id="glyph106" />
<glyph
   unicode="Î"
   horiz-adv-x="339"
   d="M169,833l86,-76l126,0l-130,152l-164,0l-130,-152l126,0M70,0l198,0l0,700l-198,0z"
   id="glyph108" />
<glyph
   unicode="Ï"
   horiz-adv-x="339"
   d="M63,756C108,756 142,787 142,834C142,881 108,913 63,913C18,913 -16,881 -16,834C-16,787 18,756 63,756M275,756C320,756 354,787 354,834C354,881 320,913 275,913C230,913 196,881 196,834C196,787 230,756 275,756M70,0l198,0l0,700l-198,0z"
   id="glyph110" />
<glyph
   unicode="İ"
   horiz-adv-x="339"
   d="M169,755C227,755 268,796 268,854C268,911 227,952 169,952C111,952 70,911 70,854C70,796 111,755 169,755M70,0l198,0l0,700l-198,0z"
   id="glyph112" />
<glyph
   unicode="Ì"
   horiz-adv-x="339"
   d="M131,757l136,0l-134,152l-190,0M70,0l198,0l0,700l-198,0z"
   id="glyph114" />
<glyph
   unicode="Ī"
   horiz-adv-x="339"
   d="M9,781l320,0l0,102l-320,0M70,0l198,0l0,700l-198,0z"
   id="glyph116" />
<glyph
   unicode="Į"
   horiz-adv-x="339"
   d="M273,-135C263,-142 252,-146 241,-146C219,-146 201,-128 201,-101C201,-68 217,-37 268,0l0,700l-198,0l0,-700l72,0C105,-33 85,-74 85,-118C85,-189 138,-236 217,-236C248,-236 277,-227 296,-214z"
   id="glyph118" />
<glyph
   unicode="Ĩ"
   horiz-adv-x="339"
   d="M247,750C324,750 372,813 374,907l-93,0C279,876 262,857 235,857C199,857 162,918 91,918C14,918 -34,856 -36,759l93,0C59,792 76,812 103,812C139,812 176,750 247,750M70,0l198,0l0,700l-198,0z"
   id="glyph120" />
<glyph
   unicode="J"
   horiz-adv-x="557"
   d="M223,-14C399,-14 493,76 493,258l0,442l-438,0l0,-153l242,0l0,-301C297,179 266,144 209,144C164,144 125,169 88,217l-108,-128C34,22 121,-14 223,-14z"
   id="glyph122" />
<glyph
   unicode="Ĵ"
   horiz-adv-x="557"
   d="M274,833l86,-76l126,0l-130,152l-164,0l-130,-152l126,0M55,700l0,-153l242,0l0,-301C297,179 266,144 209,144C164,144 125,169 88,217l-108,-128C34,22 121,-14 223,-14C399,-14 493,76 493,258l0,442z"
   id="glyph124" />
<glyph
   unicode="K"
   horiz-adv-x="752"
   d="M540,0l230,0l-301,390l286,310l-218,0l-271,-291l0,291l-196,0l0,-700l196,0l0,175l74,79z"
   id="glyph126" />
<glyph
   unicode="Ķ"
   horiz-adv-x="752"
   d="M469,390l286,310l-218,0l-271,-291l0,291l-196,0l0,-700l196,0l0,175l74,79l200,-254l230,0M382,-62C333,-62 303,-89 303,-129C303,-158 316,-179 343,-189l-26,-79l86,0l37,67C458,-169 461,-147 461,-129C461,-89 431,-62 382,-62z"
   id="glyph128" />
<glyph
   unicode="L"
   horiz-adv-x="610"
   d="M70,0l532,0l0,157l-334,0l0,543l-198,0z"
   id="glyph130" />
<glyph
   unicode="Ĺ"
   horiz-adv-x="610"
   d="M71,757l136,0l188,152l-190,0M70,0l532,0l0,157l-334,0l0,543l-198,0z"
   id="glyph132" />
<glyph
   unicode="Ľ"
   horiz-adv-x="610"
   d="M427,540l112,0l25,205l-137,0M70,0l532,0l0,157l-334,0l0,543l-198,0z"
   id="glyph134" />
<glyph
   unicode="Ļ"
   horiz-adv-x="610"
   d="M268,157l0,543l-198,0l0,-700l532,0l0,157M348,-62C299,-62 269,-89 269,-129C269,-158 282,-179 309,-189l-26,-79l86,0l37,67C424,-169 427,-147 427,-129C427,-89 397,-62 348,-62z"
   id="glyph136" />
<glyph
   unicode="Ŀ"
   horiz-adv-x="610"
   d="M70,0l532,0l0,157l-334,0l0,543l-198,0M475,328C533,328 574,369 574,428C574,486 533,528 475,528C417,528 376,486 376,428C376,369 417,328 475,328z"
   id="glyph138" />
<glyph
   unicode="Ł"
   horiz-adv-x="627"
   d="M285,157l0,241l164,122l-64,89l-100,-75l0,166l-198,0l0,-314l-111,-83l64,-88l47,35l0,-250l532,0l0,157z"
   id="glyph140" />
<glyph
   unicode="M"
   horiz-adv-x="954"
   d="M884,0l-2,700l-163,0l-240,-404l-246,404l-163,0l0,-700l183,0l0,361l179,-292l88,0l180,302l2,-371z"
   id="glyph142" />
<glyph
   unicode="N"
   horiz-adv-x="806"
   d="M542,700l0,-373l-309,373l-163,0l0,-700l194,0l0,373l309,-373l163,0l0,700z"
   id="glyph144" />
<glyph
   unicode="Ń"
   horiz-adv-x="806"
   d="M629,909l-190,0l-134,-152l136,0M542,700l0,-373l-309,373l-163,0l0,-700l194,0l0,373l309,-373l163,0l0,700z"
   id="glyph146" />
<glyph
   unicode="Ň"
   horiz-adv-x="806"
   d="M485,757l130,152l-126,0l-86,-76l-86,76l-126,0l130,-152M542,700l0,-373l-309,373l-163,0l0,-700l194,0l0,373l309,-373l163,0l0,700z"
   id="glyph148" />
<glyph
   unicode="Ņ"
   horiz-adv-x="806"
   d="M542,700l0,-373l-309,373l-163,0l0,-700l194,0l0,373l309,-373l163,0l0,700M403,-62C354,-62 324,-89 324,-129C324,-158 337,-179 364,-189l-26,-79l86,0l37,67C479,-169 482,-147 482,-129C482,-89 452,-62 403,-62z"
   id="glyph150" />
<glyph
   unicode="Ñ"
   horiz-adv-x="806"
   d="M337,812C373,812 410,750 481,750C558,750 606,813 608,907l-93,0C513,876 496,857 469,857C433,857 396,918 325,918C248,918 200,856 198,759l93,0C293,792 310,812 337,812M542,700l0,-373l-309,373l-163,0l0,-700l194,0l0,373l309,-373l163,0l0,700z"
   id="glyph152" />
<glyph
   unicode="O"
   horiz-adv-x="846"
   d="M423,-14C647,-14 812,140 812,350C812,560 647,714 423,714C199,714 34,560 34,350C34,140 199,-14 423,-14M423,150C317,150 234,229 234,350C234,471 317,550 423,550C529,550 612,471 612,350C612,229 529,150 423,150z"
   id="glyph154" />
<glyph
   unicode="Œ"
   horiz-adv-x="1142"
   d="M736,153l0,128l311,0l0,148l-311,0l0,118l353,0l0,153l-664,0C193,700 34,565 34,350C34,135 193,0 425,0l677,0l0,153M433,158C314,158 234,229 234,350C234,471 314,542 433,542l108,0l0,-384z"
   id="glyph156" />
<glyph
   unicode="Ó"
   horiz-adv-x="846"
   d="M325,757l136,0l188,152l-190,0M423,-14C647,-14 812,140 812,350C812,560 647,714 423,714C199,714 34,560 34,350C34,140 199,-14 423,-14M423,150C317,150 234,229 234,350C234,471 317,550 423,550C529,550 612,471 612,350C612,229 529,150 423,150z"
   id="glyph158" />
<glyph
   unicode="Ŏ"
   horiz-adv-x="846"
   d="M423,748C535,748 615,810 619,909l-116,0C501,869 467,843 423,843C379,843 345,869 343,909l-116,0C231,810 311,748 423,748M423,-14C647,-14 812,140 812,350C812,560 647,714 423,714C199,714 34,560 34,350C34,140 199,-14 423,-14M423,150C317,150 234,229 234,350C234,471 317,550 423,550C529,550 612,471 612,350C612,229 529,150 423,150z"
   id="glyph160" />
<glyph
   unicode="Ô"
   horiz-adv-x="846"
   d="M423,833l86,-76l126,0l-130,152l-164,0l-130,-152l126,0M423,714C199,714 34,560 34,350C34,140 199,-14 423,-14C647,-14 812,140 812,350C812,560 647,714 423,714M423,150C317,150 234,229 234,350C234,471 317,550 423,550C529,550 612,471 612,350C612,229 529,150 423,150z"
   id="glyph162" />
<glyph
   unicode="Ö"
   horiz-adv-x="846"
   d="M317,756C362,756 396,787 396,834C396,881 362,913 317,913C272,913 238,881 238,834C238,787 272,756 317,756M529,756C574,756 608,787 608,834C608,881 574,913 529,913C484,913 450,881 450,834C450,787 484,756 529,756M423,-14C647,-14 812,140 812,350C812,560 647,714 423,714C199,714 34,560 34,350C34,140 199,-14 423,-14M423,150C317,150 234,229 234,350C234,471 317,550 423,550C529,550 612,471 612,350C612,229 529,150 423,150z"
   id="glyph164" />
<glyph
   unicode="Ò"
   horiz-adv-x="846"
   d="M385,757l136,0l-134,152l-190,0M423,-14C647,-14 812,140 812,350C812,560 647,714 423,714C199,714 34,560 34,350C34,140 199,-14 423,-14M423,150C317,150 234,229 234,350C234,471 317,550 423,550C529,550 612,471 612,350C612,229 529,150 423,150z"
   id="glyph166" />
<glyph
   unicode="Ơ"
   horiz-adv-x="846"
   d="M703,605C769,628 809,679 809,755C809,797 795,832 774,860l-109,-39C676,806 685,785 685,763C685,722 656,701 610,701C565,701 505,714 431,714C199,714 34,560 34,350C34,140 199,-14 423,-14C647,-14 812,140 812,350C812,455 770,544 703,605M423,150C317,150 234,229 234,350C234,471 317,550 423,550C529,550 612,471 612,350C612,229 529,150 423,150z"
   id="glyph168" />
<glyph
   unicode="Ő"
   horiz-adv-x="846"
   d="M248,757l132,0l101,152l-170,0M466,757l132,0l100,152l-170,0M423,-14C647,-14 812,140 812,350C812,560 647,714 423,714C199,714 34,560 34,350C34,140 199,-14 423,-14M423,150C317,150 234,229 234,350C234,471 317,550 423,550C529,550 612,471 612,350C612,229 529,150 423,150z"
   id="glyph170" />
<glyph
   unicode="Ō"
   horiz-adv-x="846"
   d="M226,782l394,0l0,102l-394,0M423,-14C647,-14 812,140 812,350C812,560 647,714 423,714C199,714 34,560 34,350C34,140 199,-14 423,-14M423,150C317,150 234,229 234,350C234,471 317,550 423,550C529,550 612,471 612,350C612,229 529,150 423,150z"
   id="glyph172" />
<glyph
   unicode="Ø"
   horiz-adv-x="846"
   d="M680,629l100,141l-117,0l-65,-91C546,701 487,714 423,714C199,714 34,560 34,350C34,235 84,136 166,71l-100,-141l117,0l65,91C300,-1 359,-14 423,-14C647,-14 812,140 812,350C812,465 762,564 680,629M234,350C234,471 317,550 423,550C449,550 474,545 497,536l-223,-314C249,256 234,299 234,350M423,150C397,150 372,155 349,164l223,314C597,444 612,401 612,350C612,229 529,150 423,150z"
   id="glyph174" />
<glyph
   unicode="Ǿ"
   horiz-adv-x="846"
   d="M649,909l-190,0l-134,-152l136,0M680,629l100,141l-117,0l-65,-91C546,701 487,714 423,714C199,714 34,560 34,350C34,235 84,136 166,71l-100,-141l117,0l65,91C300,-1 359,-14 423,-14C647,-14 812,140 812,350C812,465 762,564 680,629M234,350C234,471 317,550 423,550C449,550 474,545 497,536l-223,-314C249,256 234,299 234,350M423,150C397,150 372,155 349,164l223,314C597,444 612,401 612,350C612,229 529,150 423,150z"
   id="glyph176" />
<glyph
   unicode="Õ"
   horiz-adv-x="846"
   d="M501,750C578,750 626,813 628,907l-93,0C533,876 516,857 489,857C453,857 416,918 345,918C268,918 220,856 218,759l93,0C313,792 330,812 357,812C393,812 430,750 501,750M423,-14C647,-14 812,140 812,350C812,560 647,714 423,714C199,714 34,560 34,350C34,140 199,-14 423,-14M423,150C317,150 234,229 234,350C234,471 317,550 423,550C529,550 612,471 612,350C612,229 529,150 423,150z"
   id="glyph178" />
<glyph
   unicode="P"
   horiz-adv-x="737"
   d="M390,700l-320,0l0,-700l198,0l0,183l122,0C581,183 701,282 701,441C701,601 581,700 390,700M378,339l-110,0l0,205l110,0C460,544 501,506 501,441C501,377 460,339 378,339z"
   id="glyph180" />
<glyph
   unicode="Q"
   horiz-adv-x="846"
   d="M762,21C731,-11 694,-28 656,-28C626,-28 602,-18 574,12C717,64 812,191 812,350C812,560 647,714 423,714C199,714 34,560 34,350C34,165 162,23 346,-8C463,-130 538,-169 652,-169C732,-169 801,-138 848,-81M234,350C234,471 317,550 423,550C529,550 612,471 612,350C612,229 529,150 423,150C317,150 234,229 234,350z"
   id="glyph182" />
<glyph
   unicode="R"
   horiz-adv-x="740"
   d="M503,0l212,0l-151,220C651,262 701,338 701,441C701,601 581,700 390,700l-320,0l0,-700l198,0l0,186l108,0M501,441C501,377 460,339 378,339l-110,0l0,205l110,0C460,544 501,506 501,441z"
   id="glyph184" />
<glyph
   unicode="Ŕ"
   horiz-adv-x="740"
   d="M603,909l-190,0l-134,-152l136,0M503,0l212,0l-151,220C651,262 701,338 701,441C701,601 581,700 390,700l-320,0l0,-700l198,0l0,186l108,0M501,441C501,377 460,339 378,339l-110,0l0,205l110,0C460,544 501,506 501,441z"
   id="glyph186" />
<glyph
   unicode="Ř"
   horiz-adv-x="740"
   d="M459,757l130,152l-126,0l-86,-76l-86,76l-126,0l130,-152M503,0l212,0l-151,220C651,262 701,338 701,441C701,601 581,700 390,700l-320,0l0,-700l198,0l0,186l108,0M501,441C501,377 460,339 378,339l-110,0l0,205l110,0C460,544 501,506 501,441z"
   id="glyph188" />
<glyph
   unicode="Ŗ"
   horiz-adv-x="740"
   d="M564,220C651,262 701,338 701,441C701,601 581,700 390,700l-320,0l0,-700l198,0l0,186l108,0l127,-186l212,0M501,441C501,377 460,339 378,339l-110,0l0,205l110,0C460,544 501,506 501,441M377,-62C328,-62 298,-89 298,-129C298,-158 311,-179 338,-189l-26,-79l86,0l37,67C453,-169 456,-147 456,-129C456,-89 426,-62 377,-62z"
   id="glyph190" />
<glyph
   unicode="S"
   horiz-adv-x="647"
   d="M316,-14C524,-14 626,90 626,212C626,470 229,390 229,497C229,532 259,560 342,560C403,560 469,542 536,506l61,147C528,693 434,714 343,714C135,714 33,612 33,487C33,227 431,308 431,197C431,163 399,140 317,140C236,140 148,168 86,209l-65,-146C87,17 201,-14 316,-14z"
   id="glyph192" />
<glyph
   unicode="Ś"
   horiz-adv-x="647"
   d="M229,757l136,0l188,152l-190,0M316,-14C524,-14 626,90 626,212C626,470 229,390 229,497C229,532 259,560 342,560C403,560 469,542 536,506l61,147C528,693 434,714 343,714C135,714 33,612 33,487C33,227 431,308 431,197C431,163 399,140 317,140C236,140 148,168 86,209l-65,-146C87,17 201,-14 316,-14z"
   id="glyph194" />
<glyph
   unicode="Š"
   horiz-adv-x="647"
   d="M409,757l130,152l-126,0l-86,-76l-86,76l-126,0l130,-152M229,497C229,532 259,560 342,560C403,560 469,542 536,506l61,147C528,693 434,714 343,714C135,714 33,612 33,487C33,227 431,308 431,197C431,163 399,140 317,140C236,140 148,168 86,209l-65,-146C87,17 201,-14 316,-14C524,-14 626,90 626,212C626,470 229,390 229,497z"
   id="glyph196" />
<glyph
   unicode="Ş"
   horiz-adv-x="647"
   d="M626,212C626,470 229,390 229,497C229,532 259,560 342,560C403,560 469,542 536,506l61,147C528,693 434,714 343,714C135,714 33,612 33,487C33,227 431,308 431,197C431,163 399,140 317,140C236,140 148,168 86,209l-65,-146C79,23 173,-6 272,-13l-21,-88l37,0C320,-101 333,-111 333,-126C333,-142 319,-154 283,-154C259,-154 238,-148 221,-140l-26,-75C217,-227 256,-236 290,-236C385,-236 448,-196 448,-132C448,-95 424,-58 362,-51l9,40C542,5 626,101 626,212z"
   id="glyph198" />
<glyph
   unicode="Ŝ"
   horiz-adv-x="647"
   d="M327,833l86,-76l126,0l-130,152l-164,0l-130,-152l126,0M229,497C229,532 259,560 342,560C403,560 469,542 536,506l61,147C528,693 434,714 343,714C135,714 33,612 33,487C33,227 431,308 431,197C431,163 399,140 317,140C236,140 148,168 86,209l-65,-146C87,17 201,-14 316,-14C524,-14 626,90 626,212C626,470 229,390 229,497z"
   id="glyph200" />
<glyph
   unicode="Ș"
   horiz-adv-x="647"
   d="M229,497C229,532 259,560 342,560C403,560 469,542 536,506l61,147C528,693 434,714 343,714C135,714 33,612 33,487C33,227 431,308 431,197C431,163 399,140 317,140C236,140 148,168 86,209l-65,-146C87,17 201,-14 316,-14C524,-14 626,90 626,212C626,470 229,390 229,497M327,-62C278,-62 248,-89 248,-129C248,-158 261,-179 288,-189l-26,-79l86,0l37,67C403,-169 406,-147 406,-129C406,-89 376,-62 327,-62z"
   id="glyph202" />
<glyph
   unicode="T"
   horiz-adv-x="635"
   d="M219,0l198,0l0,543l214,0l0,157l-627,0l0,-157l215,0z"
   id="glyph204" />
<glyph
   unicode="Ŧ"
   horiz-adv-x="635"
   d="M631,543l0,157l-627,0l0,-157l215,0l0,-160l-126,0l0,-122l126,0l0,-261l198,0l0,261l126,0l0,122l-126,0l0,160z"
   id="glyph206" />
<glyph
   unicode="Ť"
   horiz-adv-x="635"
   d="M400,757l130,152l-126,0l-86,-76l-86,76l-126,0l130,-152M4,700l0,-157l215,0l0,-543l198,0l0,543l214,0l0,157z"
   id="glyph208" />
<glyph
   unicode="Þ"
   horiz-adv-x="737"
   d="M390,628l-122,0l0,73l-198,0l0,-701l198,0l0,110l122,0C581,110 701,210 701,369C701,528 581,628 390,628M378,267l-110,0l0,204l110,0C460,471 501,433 501,369C501,305 460,267 378,267z"
   id="glyph210" />
<glyph
   unicode="U"
   horiz-adv-x="786"
   d="M393,-14C600,-14 722,103 722,312l0,388l-195,0l0,-382C527,198 477,150 395,150C312,150 262,198 262,318l0,382l-198,0l0,-388C64,103 186,-14 393,-14z"
   id="glyph212" />
<glyph
   unicode="Ú"
   horiz-adv-x="786"
   d="M297,757l136,0l188,152l-190,0M393,-14C600,-14 722,103 722,312l0,388l-195,0l0,-382C527,198 477,150 395,150C312,150 262,198 262,318l0,382l-198,0l0,-388C64,103 186,-14 393,-14z"
   id="glyph214" />
<glyph
   unicode="Ŭ"
   horiz-adv-x="786"
   d="M395,748C507,748 587,810 591,909l-116,0C473,869 439,843 395,843C351,843 317,869 315,909l-116,0C203,810 283,748 395,748M393,-14C600,-14 722,103 722,312l0,388l-195,0l0,-382C527,198 477,150 395,150C312,150 262,198 262,318l0,382l-198,0l0,-388C64,103 186,-14 393,-14z"
   id="glyph216" />
<glyph
   unicode="Û"
   horiz-adv-x="786"
   d="M395,833l86,-76l126,0l-130,152l-164,0l-130,-152l126,0M527,700l0,-382C527,198 477,150 395,150C312,150 262,198 262,318l0,382l-198,0l0,-388C64,103 186,-14 393,-14C600,-14 722,103 722,312l0,388z"
   id="glyph218" />
<glyph
   unicode="Ü"
   horiz-adv-x="786"
   d="M289,756C334,756 368,787 368,834C368,881 334,913 289,913C244,913 210,881 210,834C210,787 244,756 289,756M501,756C546,756 580,787 580,834C580,881 546,913 501,913C456,913 422,881 422,834C422,787 456,756 501,756M393,-14C600,-14 722,103 722,312l0,388l-195,0l0,-382C527,198 477,150 395,150C312,150 262,198 262,318l0,382l-198,0l0,-388C64,103 186,-14 393,-14z"
   id="glyph220" />
<glyph
   unicode="Ù"
   horiz-adv-x="786"
   d="M357,757l136,0l-134,152l-190,0M393,-14C600,-14 722,103 722,312l0,388l-195,0l0,-382C527,198 477,150 395,150C312,150 262,198 262,318l0,382l-198,0l0,-388C64,103 186,-14 393,-14z"
   id="glyph222" />
<glyph
   unicode="Ư"
   horiz-adv-x="803"
   d="M835,755C835,797 822,833 800,860l-110,-39C702,807 710,785 710,763C710,726 685,700 653,700l-126,0l0,-382C527,198 477,150 395,150C312,150 262,198 262,318l0,382l-198,0l0,-388C64,103 186,-14 393,-14C600,-14 722,103 722,312l0,279C794,613 835,670 835,755z"
   id="glyph224" />
<glyph
   unicode="Ű"
   horiz-adv-x="786"
   d="M220,757l132,0l101,152l-170,0M438,757l132,0l100,152l-170,0M393,-14C600,-14 722,103 722,312l0,388l-195,0l0,-382C527,198 477,150 395,150C312,150 262,198 262,318l0,382l-198,0l0,-388C64,103 186,-14 393,-14z"
   id="glyph226" />
<glyph
   unicode="Ū"
   horiz-adv-x="786"
   d="M198,782l394,0l0,102l-394,0M393,-14C600,-14 722,103 722,312l0,388l-195,0l0,-382C527,198 477,150 395,150C312,150 262,198 262,318l0,382l-198,0l0,-388C64,103 186,-14 393,-14z"
   id="glyph228" />
<glyph
   unicode="Ų"
   horiz-adv-x="786"
   d="M527,700l0,-382C527,198 477,150 395,150C312,150 262,198 262,318l0,382l-198,0l0,-388C64,124 163,10 333,-10C297,-41 278,-79 278,-119C278,-189 332,-236 426,-236C466,-236 508,-226 532,-213l-25,82C492,-139 470,-146 448,-146C411,-146 393,-128 393,-102C393,-70 422,-35 532,7C646,51 722,146 722,312l0,388z"
   id="glyph230" />
<glyph
   unicode="Ů"
   horiz-adv-x="786"
   d="M395,749C469,749 527,805 527,876C527,947 469,1004 395,1004C320,1004 263,947 263,876C263,805 320,749 395,749M395,819C363,819 338,843 338,876C338,910 363,934 395,934C427,934 452,910 452,876C452,843 427,819 395,819M393,-14C600,-14 722,103 722,312l0,388l-195,0l0,-382C527,198 477,150 395,150C312,150 262,198 262,318l0,382l-198,0l0,-388C64,103 186,-14 393,-14z"
   id="glyph232" />
<glyph
   unicode="Ũ"
   horiz-adv-x="786"
   d="M473,750C550,750 598,813 600,907l-93,0C505,876 488,857 461,857C425,857 388,918 317,918C240,918 192,856 190,759l93,0C285,792 302,812 329,812C365,812 402,750 473,750M393,-14C600,-14 722,103 722,312l0,388l-195,0l0,-382C527,198 477,150 395,150C312,150 262,198 262,318l0,382l-198,0l0,-388C64,103 186,-14 393,-14z"
   id="glyph234" />
<glyph
   unicode="V"
   horiz-adv-x="766"
   d="M584,700l-194,-456l-190,456l-214,0l299,-700l195,0l300,700z"
   id="glyph236" />
<glyph
   unicode="W"
   horiz-adv-x="1184"
   d="M979,700l-147,-451l-141,451l-182,0l-148,-447l-141,447l-204,0l227,-700l212,0l140,426l134,-426l212,0l227,700z"
   id="glyph238" />
<glyph
   unicode="Ẃ"
   horiz-adv-x="1184"
   d="M818,909l-190,0l-134,-152l136,0M979,700l-147,-451l-141,451l-182,0l-148,-447l-141,447l-204,0l227,-700l212,0l140,426l134,-426l212,0l227,700z"
   id="glyph240" />
<glyph
   unicode="Ŵ"
   horiz-adv-x="1184"
   d="M592,833l86,-76l126,0l-130,152l-164,0l-130,-152l126,0M979,700l-147,-451l-141,451l-182,0l-148,-447l-141,447l-204,0l227,-700l212,0l140,426l134,-426l212,0l227,700z"
   id="glyph242" />
<glyph
   unicode="Ẅ"
   horiz-adv-x="1184"
   d="M486,756C531,756 565,787 565,834C565,881 531,913 486,913C441,913 407,881 407,834C407,787 441,756 486,756M698,756C743,756 777,787 777,834C777,881 743,913 698,913C653,913 619,881 619,834C619,787 653,756 698,756M979,700l-147,-451l-141,451l-182,0l-148,-447l-141,447l-204,0l227,-700l212,0l140,426l134,-426l212,0l227,700z"
   id="glyph244" />
<glyph
   unicode="Ẁ"
   horiz-adv-x="1184"
   d="M690,757l-134,152l-190,0l188,-152M979,700l-147,-451l-141,451l-182,0l-148,-447l-141,447l-204,0l227,-700l212,0l140,426l134,-426l212,0l227,700z"
   id="glyph246" />
<glyph
   unicode="X"
   horiz-adv-x="737"
   d="M740,0l-260,362l244,338l-214,0l-138,-202l-140,202l-223,0l244,-346l-255,-354l226,0l143,217l145,-217z"
   id="glyph248" />
<glyph
   unicode="Y"
   horiz-adv-x="693"
   d="M713,700l-192,0l-166,-278l-166,278l-209,0l267,-446l0,-254l198,0l0,251z"
   id="glyph250" />
<glyph
   unicode="Ý"
   horiz-adv-x="693"
   d="M572,909l-190,0l-134,-152l136,0M713,700l-192,0l-166,-278l-166,278l-209,0l267,-446l0,-254l198,0l0,251z"
   id="glyph252" />
<glyph
   unicode="Ŷ"
   horiz-adv-x="693"
   d="M346,833l86,-76l126,0l-130,152l-164,0l-130,-152l126,0M713,700l-192,0l-166,-278l-166,278l-209,0l267,-446l0,-254l198,0l0,251z"
   id="glyph254" />
<glyph
   unicode="Ÿ"
   horiz-adv-x="693"
   d="M240,756C285,756 319,787 319,834C319,881 285,913 240,913C195,913 161,881 161,834C161,787 195,756 240,756M452,756C497,756 531,787 531,834C531,881 497,913 452,913C407,913 373,881 373,834C373,787 407,756 452,756M713,700l-192,0l-166,-278l-166,278l-209,0l267,-446l0,-254l198,0l0,251z"
   id="glyph256" />
<glyph
   unicode="Ỳ"
   horiz-adv-x="693"
   d="M444,757l-134,152l-190,0l188,-152M713,700l-192,0l-166,-278l-166,278l-209,0l267,-446l0,-254l198,0l0,251z"
   id="glyph258" />
<glyph
   unicode="Z"
   horiz-adv-x="679"
   d="M294,157l353,419l0,124l-603,0l0,-157l344,0l-353,-419l0,-124l627,0l0,157z"
   id="glyph260" />
<glyph
   unicode="Ź"
   horiz-adv-x="679"
   d="M575,909l-190,0l-134,-152l136,0M294,157l353,419l0,124l-603,0l0,-157l344,0l-353,-419l0,-124l627,0l0,157z"
   id="glyph262" />
<glyph
   unicode="Ž"
   horiz-adv-x="679"
   d="M431,757l130,152l-126,0l-86,-76l-86,76l-126,0l130,-152M294,157l353,419l0,124l-603,0l0,-157l344,0l-353,-419l0,-124l627,0l0,157z"
   id="glyph264" />
<glyph
   unicode="Ż"
   horiz-adv-x="679"
   d="M349,755C407,755 448,796 448,854C448,911 407,952 349,952C291,952 250,911 250,854C250,796 291,755 349,755M294,157l353,419l0,124l-603,0l0,-157l344,0l-353,-419l0,-124l627,0l0,157z"
   id="glyph266" />
<glyph
   unicode="a"
   horiz-adv-x="628"
   d="M292,551C207,551 115,529 53,488l64,-129C154,388 212,406 264,406C339,406 376,375 379,320l-108,0C103,320 30,258 30,158C30,64 102,-9 232,-9C311,-9 365,18 392,70l0,-70l177,0l0,301C569,473 468,551 292,551M285,111C240,111 214,134 214,166C214,199 236,221 297,221l82,0l0,-47C364,131 327,111 285,111z"
   id="glyph268" />
<glyph
   unicode="á"
   horiz-adv-x="628"
   d="M539,759l-190,0l-134,-152l136,0M292,551C207,551 115,529 53,488l64,-129C154,388 212,406 264,406C339,406 376,375 379,320l-108,0C103,320 30,258 30,158C30,64 102,-9 232,-9C311,-9 365,18 392,70l0,-70l177,0l0,301C569,473 468,551 292,551M285,111C240,111 214,134 214,166C214,199 236,221 297,221l82,0l0,-47C364,131 327,111 285,111z"
   id="glyph270" />
<glyph
   unicode="ă"
   horiz-adv-x="628"
   d="M313,598C425,598 505,660 509,759l-116,0C391,719 357,693 313,693C269,693 235,719 233,759l-116,0C121,660 201,598 313,598M292,551C207,551 115,529 53,488l64,-129C154,388 212,406 264,406C339,406 376,375 379,320l-108,0C103,320 30,258 30,158C30,64 102,-9 232,-9C311,-9 365,18 392,70l0,-70l177,0l0,301C569,473 468,551 292,551M285,111C240,111 214,134 214,166C214,199 236,221 297,221l82,0l0,-47C364,131 327,111 285,111z"
   id="glyph272" />
<glyph
   unicode="â"
   horiz-adv-x="628"
   d="M313,683l86,-76l126,0l-130,152l-164,0l-130,-152l126,0M292,551C207,551 115,529 53,488l64,-129C154,388 212,406 264,406C339,406 376,375 379,320l-108,0C103,320 30,258 30,158C30,64 102,-9 232,-9C311,-9 365,18 392,70l0,-70l177,0l0,301C569,473 468,551 292,551M285,111C240,111 214,134 214,166C214,199 236,221 297,221l82,0l0,-47C364,131 327,111 285,111z"
   id="glyph274" />
<glyph
   unicode="´"
   horiz-adv-x="600"
   d="M202,607l136,0l188,152l-190,0z"
   id="glyph276" />
<glyph
   unicode="́"
   horiz-adv-x="0"
   d="M-398,607l136,0l188,152l-190,0z"
   id="glyph278" />
<glyph
   unicode="ä"
   horiz-adv-x="628"
   d="M207,606C252,606 286,637 286,684C286,731 252,763 207,763C162,763 128,731 128,684C128,637 162,606 207,606M419,606C464,606 498,637 498,684C498,731 464,763 419,763C374,763 340,731 340,684C340,637 374,606 419,606M292,551C207,551 115,529 53,488l64,-129C154,388 212,406 264,406C339,406 376,375 379,320l-108,0C103,320 30,258 30,158C30,64 102,-9 232,-9C311,-9 365,18 392,70l0,-70l177,0l0,301C569,473 468,551 292,551M285,111C240,111 214,134 214,166C214,199 236,221 297,221l82,0l0,-47C364,131 327,111 285,111z"
   id="glyph280" />
<glyph
   unicode="æ"
   horiz-adv-x="999"
   d="M972,274C972,448 839,551 684,551C608,551 540,526 489,483C444,529 376,551 291,551C205,551 115,529 53,488l64,-129C154,388 210,406 265,406C338,406 375,374 379,322l-108,0C103,322 30,258 30,164C30,61 118,-9 266,-9C347,-9 421,12 470,79C529,17 613,-9 703,-9C800,-9 878,21 932,79l-100,104C793,151 755,136 706,136C637,136 590,168 575,222l394,0C971,237 972,254 972,274M681,416C735,416 780,382 790,322l-219,0C582,382 628,416 681,416M287,111C240,111 214,133 214,168C214,200 235,222 297,222l82,0l0,-22C379,146 345,111 287,111z"
   id="glyph282" />
<glyph
   unicode="ǽ"
   horiz-adv-x="999"
   d="M700,759l-190,0l-134,-152l136,0M972,274C972,448 839,551 684,551C608,551 540,526 489,483C444,529 376,551 291,551C205,551 115,529 53,488l64,-129C154,388 210,406 265,406C338,406 375,374 379,322l-108,0C103,322 30,258 30,164C30,61 118,-9 266,-9C347,-9 421,12 470,79C529,17 613,-9 703,-9C800,-9 878,21 932,79l-100,104C793,151 755,136 706,136C637,136 590,168 575,222l394,0C971,237 972,254 972,274M681,416C735,416 780,382 790,322l-219,0C582,382 628,416 681,416M287,111C240,111 214,133 214,168C214,200 235,222 297,222l82,0l0,-22C379,146 345,111 287,111z"
   id="glyph284" />
<glyph
   unicode="à"
   horiz-adv-x="628"
   d="M411,607l-134,152l-190,0l188,-152M292,551C207,551 115,529 53,488l64,-129C154,388 212,406 264,406C339,406 376,375 379,320l-108,0C103,320 30,258 30,158C30,64 102,-9 232,-9C311,-9 365,18 392,70l0,-70l177,0l0,301C569,473 468,551 292,551M285,111C240,111 214,134 214,166C214,199 236,221 297,221l82,0l0,-47C364,131 327,111 285,111z"
   id="glyph286" />
<glyph
   unicode="ā"
   horiz-adv-x="628"
   d="M510,734l-394,0l0,-102l394,0M292,551C207,551 115,529 53,488l64,-129C154,388 212,406 264,406C339,406 376,375 379,320l-108,0C103,320 30,258 30,158C30,64 102,-9 232,-9C311,-9 365,18 392,70l0,-70l177,0l0,301C569,473 468,551 292,551M285,111C240,111 214,134 214,166C214,199 236,221 297,221l82,0l0,-47C364,131 327,111 285,111z"
   id="glyph288" />
<glyph
   unicode="&amp;"
   horiz-adv-x="752"
   d="M726,105l-74,66C682,217 704,271 717,330l-153,46C557,339 547,306 533,276l-102,91C520,416 561,470 561,542C561,645 474,710 345,710C203,710 110,637 110,530C110,482 131,436 177,389C76,334 31,272 31,183C31,69 149,-14 310,-14C399,-14 480,12 545,58l79,-70M345,585C382,585 401,566 401,538C401,512 382,489 328,460C292,494 283,511 283,533C283,563 305,585 345,585M324,131C258,131 217,162 217,204C217,239 235,267 280,294l151,-134C399,141 362,131 324,131z"
   id="glyph290" />
<glyph
   unicode="ą"
   horiz-adv-x="628"
   d="M569,-131C554,-139 531,-146 509,-146C473,-146 454,-128 454,-102C454,-68 483,-38 569,0l0,301C569,473 468,551 292,551C207,551 115,529 53,488l64,-129C154,388 212,406 264,406C339,406 376,375 379,320l-108,0C103,320 30,258 30,158C30,64 102,-9 232,-9C311,-9 365,18 392,70l0,-70l16,0C362,-33 339,-74 339,-119C339,-189 393,-236 487,-236C527,-236 569,-226 594,-213M285,111C240,111 214,134 214,166C214,199 236,221 297,221l82,0l0,-47C364,131 327,111 285,111z"
   id="glyph292" />
<glyph
   unicode="≈"
   horiz-adv-x="609"
   d="M404,368C497,368 562,441 564,574l-117,0C445,530 424,503 391,503C342,503 298,584 205,584C113,584 47,511 45,379l117,0C164,423 186,449 219,449C268,449 312,368 404,368M404,115C497,115 562,189 564,321l-117,0C445,277 424,251 391,251C342,251 298,332 205,332C113,332 47,258 45,126l117,0C164,170 186,197 219,197C268,197 312,115 404,115z"
   id="glyph294" />
<glyph
   unicode="å"
   horiz-adv-x="628"
   d="M313,591C387,591 445,647 445,718C445,789 387,846 313,846C238,846 181,789 181,718C181,647 238,591 313,591M313,776C345,776 370,752 370,718C370,685 345,661 313,661C281,661 256,685 256,718C256,752 281,776 313,776M292,551C207,551 115,529 53,488l64,-129C154,388 212,406 264,406C339,406 376,375 379,320l-108,0C103,320 30,258 30,158C30,64 102,-9 232,-9C311,-9 365,18 392,70l0,-70l177,0l0,301C569,473 468,551 292,551M285,111C240,111 214,134 214,166C214,199 236,221 297,221l82,0l0,-47C364,131 327,111 285,111z"
   id="glyph296" />
<glyph
   unicode="ǻ"
   horiz-adv-x="628"
   d="M313,591C387,591 445,647 445,718C445,741 439,762 428,781l116,79l-93,70l-89,-93C347,843 330,846 313,846C238,846 181,789 181,718C181,647 238,591 313,591M313,776C345,776 370,752 370,718C370,685 345,661 313,661C281,661 256,685 256,718C256,752 281,776 313,776M292,551C207,551 115,529 53,488l64,-129C154,388 212,406 264,406C339,406 376,375 379,320l-108,0C103,320 30,258 30,158C30,64 102,-9 232,-9C311,-9 365,18 392,70l0,-70l177,0l0,301C569,473 468,551 292,551M285,111C240,111 214,134 214,166C214,199 236,221 297,221l82,0l0,-47C364,131 327,111 285,111z"
   id="glyph298" />
<glyph
   unicode="↔"
   horiz-adv-x="889"
   d="M685,514l-161,0l101,-173l-361,0l101,173l-161,0l-154,-237l154,-236l161,0l-101,172l361,0l-101,-172l161,0l154,236z"
   id="glyph300" />
<glyph
   unicode="↓"
   horiz-adv-x="600"
   d="M376,224l0,301l-146,0l0,-301l-163,96l0,-141l236,-155l236,155l0,141z"
   id="glyph302" />
<glyph
   unicode="←"
   horiz-adv-x="600"
   d="M560,341l-285,0l101,173l-161,0l-154,-237l154,-236l161,0l-101,172l285,0z"
   id="glyph304" />
<glyph
   unicode="→"
   horiz-adv-x="600"
   d="M385,513l-161,0l101,-172l-285,0l0,-128l285,0l-101,-173l161,0l154,237z"
   id="glyph306" />
<glyph
   unicode="↑"
   horiz-adv-x="600"
   d="M536,375l-236,155l-236,-155l0,-141l163,96l0,-301l146,0l0,301l163,-96z"
   id="glyph308" />
<glyph
   unicode="↕"
   horiz-adv-x="600"
   d="M536,406l0,141l-236,155l-236,-155l0,-141l163,96l0,-299l-163,96l0,-141l236,-155l235,155l0,141l-162,-96l0,299z"
   id="glyph310" />
<glyph
   unicode="^"
   horiz-adv-x="610"
   d="M563,140l-183,420l-150,0l-183,-420l144,0l114,274l114,-274z"
   id="glyph312" />
<glyph
   unicode="~"
   horiz-adv-x="609"
   d="M404,243C497,243 562,316 564,449l-117,0C445,405 424,378 391,378C342,378 298,459 205,459C113,459 47,386 45,254l117,0C164,298 186,324 219,324C268,324 312,243 404,243z"
   id="glyph314" />
<glyph
   unicode="*"
   horiz-adv-x="453"
   d="M443,594l-58,96l-105,-64l3,116l-114,0l3,-116l-105,64l-57,-96l102,-56l-102,-55l57,-96l105,63l-3,-115l114,0l-3,115l105,-63l58,96l-102,55z"
   id="glyph316" />
<glyph
   unicode="@"
   horiz-adv-x="1036"
   d="M525,712C227,712 34,513 34,253C34,-10 226,-208 521,-208C605,-208 697,-190 757,-160l-37,107C655,-84 586,-97 521,-97C308,-97 167,49 167,253C167,453 311,601 525,601C739,601 882,467 882,275C882,161 856,120 819,120C795,120 775,135 775,180l0,305l-163,0l0,-49C579,473 533,493 473,493C353,493 251,395 251,243C251,91 355,-8 473,-8C551,-8 604,24 635,79C659,22 711,-8 782,-8C908,-8 1002,93 1002,278C1002,523 809,712 525,712M516,128C459,128 418,169 418,243C418,316 459,357 516,357C573,357 615,317 615,243C615,168 573,128 516,128z"
   id="glyph318" />
<glyph
   unicode="ã"
   horiz-adv-x="628"
   d="M247,662C283,662 320,600 391,600C468,600 516,663 518,757l-93,0C423,726 406,707 379,707C343,707 306,768 235,768C158,768 110,706 108,609l93,0C203,642 220,662 247,662M292,551C207,551 115,529 53,488l64,-129C154,388 212,406 264,406C339,406 376,375 379,320l-108,0C103,320 30,258 30,158C30,64 102,-9 232,-9C311,-9 365,18 392,70l0,-70l177,0l0,301C569,473 468,551 292,551M285,111C240,111 214,134 214,166C214,199 236,221 297,221l82,0l0,-47C364,131 327,111 285,111z"
   id="glyph320" />
<glyph
   unicode="b"
   horiz-adv-x="695"
   d="M402,551C339,551 288,533 251,495l0,247l-190,0l0,-742l181,0l0,54C278,11 331,-9 402,-9C549,-9 668,99 668,272C668,444 549,551 402,551M362,142C298,142 248,189 248,272C248,354 298,400 362,400C426,400 476,354 476,272C476,189 426,142 362,142z"
   id="glyph322" />
<glyph
   unicode="\"
   horiz-adv-x="415"
   d="M452,-100l-330,942l-169,0l330,-942z"
   id="glyph324" />
<glyph
   unicode="|"
   horiz-adv-x="314"
   d="M70,-194l174,0l0,936l-174,0z"
   id="glyph326" />
<glyph
   unicode="{"
   horiz-adv-x="414"
   d="M315,397l0,128C315,571 339,597 387,597l14,0l0,145l-65,0C196,742 125,671 125,547l0,-155C125,361 108,347 82,347l-34,0l0,-146l34,0C108,201 125,187 125,156l0,-155C125,-123 196,-194 336,-194l65,0l0,145l-14,0C339,-49 315,-23 315,23l0,128C315,226 292,259 240,274C292,289 315,322 315,397z"
   id="glyph328" />
<glyph
   unicode="}"
   horiz-adv-x="414"
   d="M332,347C306,347 289,361 289,392l0,155C289,671 218,742 78,742l-66,0l0,-145l15,0C75,597 99,571 99,525l0,-128C99,322 122,289 174,274C122,259 99,226 99,151l0,-128C99,-23 75,-49 27,-49l-15,0l0,-145l66,0C218,-194 289,-123 289,1l0,155C289,187 306,201 332,201l33,0l0,146z"
   id="glyph330" />
<glyph
   unicode="["
   horiz-adv-x="389"
   d="M70,-194l306,0l0,145l-116,0l0,646l116,0l0,145l-306,0z"
   id="glyph332" />
<glyph
   unicode="]"
   horiz-adv-x="389"
   d="M318,-194l0,936l-306,0l0,-145l116,0l0,-646l-116,0l0,-145z"
   id="glyph334" />
<glyph
   unicode="˘"
   horiz-adv-x="600"
   d="M300,598C412,598 492,660 496,759l-116,0C378,719 344,693 300,693C256,693 222,719 220,759l-116,0C108,660 188,598 300,598z"
   id="glyph336" />
<glyph
   unicode="¦"
   horiz-adv-x="314"
   d="M70,392l174,0l0,350l-174,0M70,-194l174,0l0,350l-174,0z"
   id="glyph338" />
<glyph
   unicode="•"
   horiz-adv-x="383"
   d="M191,137C271,137 336,199 336,283C336,366 271,427 191,427C111,427 47,366 47,283C47,199 111,137 191,137z"
   id="glyph340" />
<glyph
   unicode="c"
   horiz-adv-x="603"
   d="M338,-9C461,-9 555,46 592,140l-147,75C419,164 381,142 337,142C271,142 219,188 219,272C219,354 271,400 337,400C381,400 419,378 445,327l147,75C555,496 461,551 338,551C156,551 27,435 27,272C27,107 156,-9 338,-9z"
   id="glyph342" />
<glyph
   unicode="ć"
   horiz-adv-x="603"
   d="M220,607l136,0l188,152l-190,0M338,-9C461,-9 555,46 592,140l-147,75C419,164 381,142 337,142C271,142 219,188 219,272C219,354 271,400 337,400C381,400 419,378 445,327l147,75C555,496 461,551 338,551C156,551 27,435 27,272C27,107 156,-9 338,-9z"
   id="glyph344" />
<glyph
   unicode="ˇ"
   horiz-adv-x="600"
   d="M386,759l-86,-76l-86,76l-126,0l130,-152l164,0l130,152z"
   id="glyph346" />
<glyph
   unicode="č"
   horiz-adv-x="603"
   d="M400,607l130,152l-126,0l-86,-76l-86,76l-126,0l130,-152M337,142C271,142 219,188 219,272C219,354 271,400 337,400C381,400 419,378 445,327l147,75C555,496 461,551 338,551C156,551 27,435 27,272C27,107 156,-9 338,-9C461,-9 555,46 592,140l-147,75C419,164 381,142 337,142z"
   id="glyph348" />
<glyph
   unicode="ç"
   horiz-adv-x="603"
   d="M337,142C271,142 219,188 219,272C219,354 271,400 337,400C381,400 419,378 445,327l147,75C555,496 461,551 338,551C156,551 27,435 27,272C27,132 120,27 260,-1l-24,-100l37,0C305,-101 318,-111 318,-126C318,-142 304,-154 268,-154C244,-154 223,-148 206,-140l-26,-75C202,-227 241,-236 275,-236C370,-236 433,-196 433,-132C433,-95 409,-58 347,-51l10,42C471,-3 557,51 592,140l-147,75C419,164 381,142 337,142z"
   id="glyph350" />
<glyph
   unicode="ĉ"
   horiz-adv-x="603"
   d="M318,683l86,-76l126,0l-130,152l-164,0l-130,-152l126,0M337,142C271,142 219,188 219,272C219,354 271,400 337,400C381,400 419,378 445,327l147,75C555,496 461,551 338,551C156,551 27,435 27,272C27,107 156,-9 338,-9C461,-9 555,46 592,140l-147,75C419,164 381,142 337,142z"
   id="glyph352" />
<glyph
   unicode="ċ"
   horiz-adv-x="603"
   d="M318,605C376,605 417,646 417,704C417,761 376,802 318,802C260,802 219,761 219,704C219,646 260,605 318,605M338,-9C461,-9 555,46 592,140l-147,75C419,164 381,142 337,142C271,142 219,188 219,272C219,354 271,400 337,400C381,400 419,378 445,327l147,75C555,496 461,551 338,551C156,551 27,435 27,272C27,107 156,-9 338,-9z"
   id="glyph354" />
<glyph
   unicode="¸"
   horiz-adv-x="600"
   d="M263,-236C358,-236 421,-196 421,-132C421,-95 397,-58 335,-51l14,60l-99,0l-26,-110l37,0C293,-101 306,-111 306,-126C306,-142 292,-154 256,-154C232,-154 211,-148 194,-140l-26,-75C190,-227 229,-236 263,-236z"
   id="glyph356" />
<glyph
   unicode="¢"
   horiz-adv-x="603"
   d="M337,142C271,142 219,188 219,272C219,354 271,400 337,400C381,400 419,378 445,327l147,75C560,483 486,535 388,548l0,114l-120,0l0,-117C124,519 27,413 27,272C27,129 124,23 268,-3l0,-117l120,0l0,114C486,7 560,59 592,140l-147,75C419,164 381,142 337,142z"
   id="glyph358" />
<glyph
   unicode="ˆ"
   horiz-adv-x="600"
   d="M512,607l-130,152l-164,0l-130,-152l126,0l86,76l86,-76z"
   id="glyph360" />
<glyph
   unicode=":"
   horiz-adv-x="283"
   d="M141,326C206,326 255,373 255,439C255,507 206,551 141,551C77,551 27,507 27,439C27,373 77,326 141,326M141,-9C206,-9 255,38 255,104C255,172 206,216 141,216C77,216 27,172 27,104C27,38 77,-9 141,-9z"
   id="glyph362" />
<glyph
   unicode="₡"
   horiz-adv-x="738"
   d="M429,150C314,150 234,230 234,350C234,470 314,550 429,550C496,550 550,521 594,468l126,114C691,618 655,648 614,669l39,151l-112,0l-29,-115C497,708 482,710 466,712l28,108l-112,0l-28,-110C166,683 34,542 34,350C34,222 93,117 187,53l-44,-173l112,0l32,126C301,1 316,-3 331,-6l-29,-114l112,0l26,106C560,-9 656,38 720,118l-126,114C550,179 496,150 429,150z"
   id="glyph364" />
<glyph
   unicode=","
   horiz-adv-x="283"
   d="M142,216C76,216 28,172 28,104C28,57 51,23 87,6l-47,-163l119,0l63,146C251,54 255,76 255,104C255,172 207,216 142,216z"
   id="glyph366" />
<glyph
   unicode="©"
   horiz-adv-x="775"
   d="M386,-3C585,-3 740,153 740,352C740,551 589,703 388,703C187,703 34,547 34,350C34,153 187,-3 386,-3M386,73C229,73 115,194 115,350C115,506 229,627 388,627C547,627 659,509 659,352C659,195 543,73 386,73M401,150C485,150 550,190 576,254l-108,59C451,281 428,269 400,269C360,269 326,298 326,350C326,402 360,431 400,431C428,431 451,419 468,387l108,59C550,510 485,550 401,550C276,550 186,467 186,350C186,233 276,150 401,150z"
   id="glyph368" />
<glyph
   unicode="¤"
   horiz-adv-x="700"
   d="M608,322C608,365 598,405 579,440l99,99l-106,107l-99,-98C436,568 394,579 349,579C305,579 263,568 226,548l-99,98l-105,-107l98,-99C101,405 91,365 91,322C91,277 103,235 123,198l-101,-102l105,-107l105,104C267,75 307,65 349,65C391,65 431,75 467,93l105,-104l106,107l-102,102C596,235 608,277 608,322M349,214C288,214 239,262 239,322C239,382 288,431 349,431C410,431 461,382 461,322C461,262 410,214 349,214z"
   id="glyph370" />
<glyph
   unicode="d"
   horiz-adv-x="698"
   d="M447,742l0,-247C411,533 360,551 297,551C149,551 30,444 30,272C30,99 149,-9 297,-9C367,-9 420,11 456,54l0,-54l181,0l0,742M337,142C272,142 223,189 223,272C223,354 272,400 337,400C401,400 450,354 450,272C450,189 401,142 337,142z"
   id="glyph372" />
<glyph
   unicode="†"
   horiz-adv-x="608"
   d="M209,-194l190,0l0,534l180,0l0,153l-180,0l0,207l-190,0l0,-207l-180,0l0,-153l180,0z"
   id="glyph374" />
<glyph
   unicode="‡"
   horiz-adv-x="608"
   d="M579,341l0,153l-180,0l0,206l-190,0l0,-206l-180,0l0,-153l180,0l0,-176l-180,0l0,-153l180,0l0,-206l190,0l0,206l180,0l0,153l-180,0l0,176z"
   id="glyph376" />
<glyph
   unicode="ď"
   horiz-adv-x="698"
   d="M715,787l0,-205l112,0l25,205M447,495C411,533 360,551 297,551C149,551 30,444 30,272C30,99 149,-9 297,-9C367,-9 420,11 456,54l0,-54l181,0l0,742l-190,0M337,142C272,142 223,189 223,272C223,354 272,400 337,400C401,400 450,354 450,272C450,189 401,142 337,142z"
   id="glyph378" />
<glyph
   unicode="đ"
   horiz-adv-x="698"
   d="M700,688l-63,0l0,54l-190,0l0,-54l-167,0l0,-99l167,0l0,-94C411,533 360,551 297,551C149,551 30,444 30,272C30,99 149,-9 297,-9C367,-9 420,11 456,54l0,-54l181,0l0,589l63,0M337,142C272,142 223,189 223,272C223,354 272,400 337,400C401,400 450,354 450,272C450,189 401,142 337,142z"
   id="glyph380" />
<glyph
   unicode="°"
   horiz-adv-x="417"
   d="M208,358C309,358 390,435 390,534C390,633 309,710 208,710C108,710 27,633 27,534C27,435 108,358 208,358M208,448C160,448 124,485 124,534C124,582 160,619 208,619C257,619 293,582 293,534C293,485 257,448 208,448z"
   id="glyph382" />
<glyph
   unicode="¨"
   horiz-adv-x="600"
   d="M194,606C239,606 273,637 273,684C273,731 239,763 194,763C149,763 115,731 115,684C115,637 149,606 194,606M406,606C451,606 485,637 485,684C485,731 451,763 406,763C361,763 327,731 327,684C327,637 361,606 406,606z"
   id="glyph384" />
<glyph
   unicode="÷"
   horiz-adv-x="609"
   d="M305,469C359,469 402,509 402,565C402,622 359,660 305,660C250,660 208,622 208,565C208,509 250,469 305,469M58,277l493,0l0,146l-493,0M305,40C359,40 402,80 402,137C402,193 359,231 305,231C250,231 208,193 208,137C208,80 250,40 305,40z"
   id="glyph386" />
<glyph
   unicode="$"
   horiz-adv-x="647"
   d="M626,212C626,470 229,390 229,497C229,532 259,560 342,560C403,560 469,542 536,506l61,147C541,686 468,706 394,712l0,108l-120,0l0,-110C112,690 33,597 33,487C33,227 431,308 431,197C431,163 399,140 317,140C236,140 148,168 86,209l-65,-146C79,23 174,-6 274,-13l0,-107l120,0l0,111C550,14 626,106 626,212z"
   id="glyph388" />
<glyph
   unicode="₫"
   horiz-adv-x="698"
   d="M699,686l-62,0l0,56l-190,0l0,-56l-167,0l0,-95l167,0l0,-96C411,533 360,551 297,551C149,551 30,444 30,272C30,99 149,-9 297,-9C367,-9 420,11 456,54l0,-54l181,0l0,591l62,0M337,142C272,142 223,189 223,272C223,354 272,400 337,400C401,400 450,354 450,272C450,189 401,142 337,142M52,-144l585,0l0,95l-585,0z"
   id="glyph390" />
<glyph
   unicode="˙"
   horiz-adv-x="600"
   d="M300,605C358,605 399,646 399,704C399,761 358,802 300,802C242,802 201,761 201,704C201,646 242,605 300,605z"
   id="glyph392" />
<glyph
   unicode="̣"
   horiz-adv-x="0"
   d="M-300,-218C-255,-218 -221,-188 -221,-141C-221,-94 -255,-62 -300,-62C-345,-62 -379,-94 -379,-141C-379,-188 -345,-218 -300,-218z"
   id="glyph394" />
<glyph
   unicode="ı"
   horiz-adv-x="313"
   d="M61,0l190,0l0,542l-190,0z"
   id="glyph396" />
<glyph
   unicode="e"
   horiz-adv-x="642"
   d="M615,270C615,449 485,551 325,551C154,551 27,435 27,272C27,110 152,-9 345,-9C448,-9 524,21 576,79l-100,104C439,151 404,136 351,136C281,136 234,168 218,223l394,0C613,238 615,256 615,270M326,416C385,416 427,380 437,323l-222,0C226,380 267,416 326,416z"
   id="glyph398" />
<glyph
   unicode="é"
   horiz-adv-x="642"
   d="M547,759l-190,0l-134,-152l136,0M615,270C615,449 485,551 325,551C154,551 27,435 27,272C27,110 152,-9 345,-9C448,-9 524,21 576,79l-100,104C439,151 404,136 351,136C281,136 234,168 218,223l394,0C613,238 615,256 615,270M326,416C385,416 427,380 437,323l-222,0C226,380 267,416 326,416z"
   id="glyph400" />
<glyph
   unicode="ĕ"
   horiz-adv-x="642"
   d="M321,598C433,598 513,660 517,759l-116,0C399,719 365,693 321,693C277,693 243,719 241,759l-116,0C129,660 209,598 321,598M615,270C615,449 485,551 325,551C154,551 27,435 27,272C27,110 152,-9 345,-9C448,-9 524,21 576,79l-100,104C439,151 404,136 351,136C281,136 234,168 218,223l394,0C613,238 615,256 615,270M326,416C385,416 427,380 437,323l-222,0C226,380 267,416 326,416z"
   id="glyph402" />
<glyph
   unicode="ě"
   horiz-adv-x="642"
   d="M403,607l130,152l-126,0l-86,-76l-86,76l-126,0l130,-152M615,270C615,449 485,551 325,551C154,551 27,435 27,272C27,110 152,-9 345,-9C448,-9 524,21 576,79l-100,104C439,151 404,136 351,136C281,136 234,168 218,223l394,0C613,238 615,256 615,270M326,416C385,416 427,380 437,323l-222,0C226,380 267,416 326,416z"
   id="glyph404" />
<glyph
   unicode="ê"
   horiz-adv-x="642"
   d="M321,683l86,-76l126,0l-130,152l-164,0l-130,-152l126,0M615,270C615,449 485,551 325,551C154,551 27,435 27,272C27,110 152,-9 345,-9C448,-9 524,21 576,79l-100,104C439,151 404,136 351,136C281,136 234,168 218,223l394,0C613,238 615,256 615,270M326,416C385,416 427,380 437,323l-222,0C226,380 267,416 326,416z"
   id="glyph406" />
<glyph
   unicode="ë"
   horiz-adv-x="642"
   d="M215,606C260,606 294,637 294,684C294,731 260,763 215,763C170,763 136,731 136,684C136,637 170,606 215,606M427,606C472,606 506,637 506,684C506,731 472,763 427,763C382,763 348,731 348,684C348,637 382,606 427,606M615,270C615,449 485,551 325,551C154,551 27,435 27,272C27,110 152,-9 345,-9C448,-9 524,21 576,79l-100,104C439,151 404,136 351,136C281,136 234,168 218,223l394,0C613,238 615,256 615,270M326,416C385,416 427,380 437,323l-222,0C226,380 267,416 326,416z"
   id="glyph408" />
<glyph
   unicode="ė"
   horiz-adv-x="642"
   d="M321,605C379,605 420,646 420,704C420,761 379,802 321,802C263,802 222,761 222,704C222,646 263,605 321,605M615,270C615,449 485,551 325,551C154,551 27,435 27,272C27,110 152,-9 345,-9C448,-9 524,21 576,79l-100,104C439,151 404,136 351,136C281,136 234,168 218,223l394,0C613,238 615,256 615,270M326,416C385,416 427,380 437,323l-222,0C226,380 267,416 326,416z"
   id="glyph410" />
<glyph
   unicode="è"
   horiz-adv-x="642"
   d="M419,607l-134,152l-190,0l188,-152M615,270C615,449 485,551 325,551C154,551 27,435 27,272C27,110 152,-9 345,-9C448,-9 524,21 576,79l-100,104C439,151 404,136 351,136C281,136 234,168 218,223l394,0C613,238 615,256 615,270M326,416C385,416 427,380 437,323l-222,0C226,380 267,416 326,416z"
   id="glyph412" />
<glyph
   unicode="8"
   horiz-adv-x="669"
   d="M538,369C585,402 613,450 613,510C613,634 499,714 334,714C169,714 55,634 55,510C55,450 83,402 130,369C67,333 30,278 30,206C30,72 153,-14 334,-14C515,-14 638,72 638,206C638,278 601,333 538,369M334,575C383,575 418,548 418,501C418,455 384,428 334,428C284,428 251,455 251,501C251,548 285,575 334,575M334,125C271,125 229,158 229,212C229,266 271,299 334,299C397,299 439,266 439,212C439,158 397,125 334,125z"
   id="glyph414" />
<glyph
   unicode="…"
   horiz-adv-x="858"
   d="M141,-9C206,-9 255,38 255,104C255,172 206,216 141,216C77,216 27,172 27,104C27,38 77,-9 141,-9M429,-9C494,-9 543,38 543,104C543,172 494,216 429,216C365,216 315,172 315,104C315,38 365,-9 429,-9M716,-9C781,-9 830,38 830,104C830,172 781,216 716,216C652,216 602,172 602,104C602,38 652,-9 716,-9z"
   id="glyph416" />
<glyph
   unicode="ē"
   horiz-adv-x="642"
   d="M518,734l-394,0l0,-102l394,0M615,270C615,449 485,551 325,551C154,551 27,435 27,272C27,110 152,-9 345,-9C448,-9 524,21 576,79l-100,104C439,151 404,136 351,136C281,136 234,168 218,223l394,0C613,238 615,256 615,270M326,416C385,416 427,380 437,323l-222,0C226,380 267,416 326,416z"
   id="glyph418" />
<glyph
   unicode="—"
   horiz-adv-x="1000"
   d="M0,229l1000,0l0,113l-1000,0z"
   id="glyph420" />
<glyph
   unicode="∅"
   horiz-adv-x="609"
   d="M589,561l-48,52l-82,-76C417,569 364,588 307,588C171,588 61,480 61,347C61,296 77,248 105,208l-84,-78l48,-52l85,79C196,125 249,105 307,105C444,105 555,214 555,347C555,399 538,447 509,487M186,347C186,414 239,469 307,469C329,469 350,463 368,453l-170,-159C190,310 186,328 186,347M430,347C430,279 375,224 307,224C284,224 263,230 245,241l172,160C425,385 430,366 430,347z"
   id="glyph422" />
<glyph
   unicode="–"
   horiz-adv-x="500"
   d="M0,229l500,0l0,113l-500,0z"
   id="glyph424" />
<glyph
   unicode="ŋ"
   horiz-adv-x="696"
   d="M414,551C346,551 285,528 242,483l0,59l-181,0l0,-542l190,0l0,262C251,352 298,390 359,390C414,390 448,357 448,279l0,-264C448,-34 425,-56 392,-56C370,-56 349,-50 333,-40l-48,-135C318,-194 367,-203 417,-203C557,-203 638,-118 638,14l0,296C638,478 541,551 414,551z"
   id="glyph426" />
<glyph
   unicode="ę"
   horiz-adv-x="642"
   d="M615,270C615,449 485,551 325,551C154,551 27,435 27,272C27,110 152,-9 345,-9l14,0C327,-38 308,-77 308,-115C308,-189 363,-236 456,-236C496,-236 539,-226 563,-213l-25,82C523,-139 500,-146 480,-146C445,-146 423,-126 423,-96C423,-59 442,-20 535,42C550,53 564,65 576,79l-100,104C439,151 404,136 351,136C281,136 234,168 218,223l394,0C613,238 615,256 615,270M326,416C385,416 427,380 437,323l-222,0C226,380 267,416 326,416z"
   id="glyph428" />
<glyph
   unicode="="
   horiz-adv-x="609"
   d="M58,404l493,0l0,145l-493,0M58,151l493,0l0,145l-493,0z"
   id="glyph430" />
<glyph
   unicode="℮"
   horiz-adv-x="853"
   d="M426,-3C551,-3 666,52 736,134l-57,0C619,64 528,18 427,18C333,18 241,53 186,122C182,128 177,135 177,145l0,192C177,340 179,341 183,341l635,0l0,8C818,545 643,703 426,703C210,703 34,545 34,349C34,155 210,-3 426,-3M183,360C179,360 177,362 177,366l0,189C177,565 182,573 187,579C249,641 333,682 427,682C520,682 604,643 665,582C671,577 676,568 676,559l0,-193C676,362 673,360 670,360z"
   id="glyph432" />
<glyph
   unicode="ð"
   horiz-adv-x="666"
   d="M562,611l51,19l-33,86l-92,-34C422,726 338,749 238,749C179,749 129,742 80,731l20,-142C139,602 185,609 228,609C247,609 265,608 282,605l-168,-63l33,-85l244,90C422,511 438,460 440,392C401,429 347,449 277,449C139,449 27,361 27,225C27,80 149,-14 306,-14C509,-14 639,118 639,340C639,454 612,544 562,611M321,127C263,127 220,162 220,217C220,273 262,308 322,308C380,308 424,271 424,217C424,165 382,127 321,127z"
   id="glyph434" />
<glyph
   unicode="!"
   horiz-adv-x="301"
   d="M75,255l151,0l38,445l-226,0M151,-9C218,-9 264,38 264,96C264,155 218,199 151,199C84,199 37,155 37,96C37,38 84,-9 151,-9z"
   id="glyph436" />
<glyph
   unicode="¡"
   horiz-adv-x="301"
   d="M151,551C84,551 37,504 37,446C37,388 84,343 151,343C218,343 264,388 264,446C264,504 218,551 151,551M226,287l-151,0l-37,-441l226,0z"
   id="glyph438" />
<glyph
   unicode="f"
   horiz-adv-x="406"
   d="M268,534C268,582 291,605 331,605C351,605 372,598 388,589l47,134C404,742 355,751 309,751C164,751 83,666 83,536l0,-14l-79,0l0,-142l79,0l0,-380l190,0l0,380l124,0l0,142l-129,0z"
   id="glyph440" />
<glyph
   unicode="ﬁ"
   horiz-adv-x="799"
   d="M642,602C712,602 758,646 758,706C758,763 712,804 642,804C572,804 526,760 526,703C526,646 572,602 642,602M331,605C351,605 372,598 388,589l47,134C404,742 355,751 309,751C164,751 83,666 83,536l0,-14l-79,0l0,-142l79,0l0,-380l190,0l0,380l124,0l0,142l-129,0l0,12C268,582 291,605 331,605M547,0l190,0l0,542l-190,0z"
   id="glyph442" />
<glyph
   unicode="‒"
   horiz-adv-x="700"
   d="M42,299l616,0l0,113l-616,0z"
   id="glyph444" />
<glyph
   unicode="■"
   horiz-adv-x="600"
   d="M106,71l388,0l0,388l-388,0z"
   id="glyph446" />
<glyph
   unicode="5"
   horiz-adv-x="607"
   d="M296,445l-47,0l9,102l282,0l0,153l-446,0l-35,-409l190,0C356,291 385,263 385,220C385,173 340,146 273,146C206,146 136,166 79,204l-71,-149C79,10 182,-14 279,-14C490,-14 584,100 584,225C584,349 503,445 296,445z"
   id="glyph448" />
<glyph
   unicode="⅝"
   horiz-adv-x="1050"
   d="M398,417C398,493 350,549 201,549l-26,0l5,54l188,0l0,97l-298,0l-25,-248l135,0C248,452 265,438 265,416C265,391 241,377 192,377C147,377 98,390 58,410l-45,-93C55,292 125,276 195,276C336,276 398,345 398,417M693,700l-478,-700l143,0l478,700M971,218C1003,237 1021,265 1021,302C1021,375 947,424 835,424C724,424 649,375 649,302C649,265 667,237 699,218C659,197 636,165 636,122C636,43 716,-9 835,-9C954,-9 1034,43 1034,122C1034,165 1011,197 971,218M835,337C871,337 892,321 892,297C892,273 870,256 835,256C800,256 778,273 778,297C778,321 799,337 835,337M835,78C793,78 768,98 768,126C768,155 794,174 835,174C876,174 902,155 902,126C902,98 876,78 835,78z"
   id="glyph450" />
<glyph
   unicode="ﬂ"
   horiz-adv-x="719"
   d="M331,605C351,605 372,598 388,589l47,134C404,742 355,751 309,751C164,751 83,666 83,536l0,-14l-79,0l0,-142l79,0l0,-380l190,0l0,380l124,0l0,142l-129,0l0,12C268,582 291,605 331,605M467,742l0,-742l190,0l0,742z"
   id="glyph452" />
<glyph
   unicode="ƒ"
   horiz-adv-x="500"
   d="M411,604C431,604 450,597 466,588l63,134C500,741 450,751 404,751C262,751 171,667 155,536l-2,-19l-80,0l-17,-142l79,0l-44,-360C85,-34 59,-56 25,-56C4,-56 -15,-50 -31,-40l-63,-134C-63,-193 -15,-203 36,-203C174,-203 264,-119 280,12l45,363l123,0l17,142l-129,0l2,16C344,582 372,604 411,604z"
   id="glyph454" />
<glyph
   unicode="4"
   horiz-adv-x="700"
   d="M694,291l-104,0l0,119l-187,0l0,-119l-142,0l285,409l-205,0l-314,-437l0,-129l370,0l0,-134l193,0l0,134l104,0z"
   id="glyph456" />
<glyph
   unicode="⁄"
   horiz-adv-x="190"
   d="M-215,0l143,0l478,700l-143,0z"
   id="glyph458" />
<glyph
   unicode="₣"
   horiz-adv-x="695"
   d="M672,547l0,153l-548,0l0,-527l-94,0l0,-97l94,0l0,-76l198,0l0,76l213,0l0,97l-213,0l0,67l308,0l0,153l-308,0l0,154z"
   id="glyph460" />
<glyph
   unicode="g"
   horiz-adv-x="705"
   d="M463,542l0,-66C426,527 368,551 293,551C149,551 27,449 27,290C27,130 149,28 293,28C362,28 417,49 454,92l0,-18C454,-11 411,-57 309,-57C245,-57 171,-35 126,1l-69,-133C123,-179 222,-203 326,-203C528,-203 644,-106 644,99l0,443M338,179C270,179 219,224 219,290C219,356 270,400 338,400C406,400 456,356 456,290C456,224 406,179 338,179z"
   id="glyph462" />
<glyph
   unicode="ğ"
   horiz-adv-x="705"
   d="M348,598C460,598 540,660 544,759l-116,0C426,719 392,693 348,693C304,693 270,719 268,759l-116,0C156,660 236,598 348,598M463,542l0,-66C426,527 368,551 293,551C149,551 27,449 27,290C27,130 149,28 293,28C362,28 417,49 454,92l0,-18C454,-11 411,-57 309,-57C245,-57 171,-35 126,1l-69,-133C123,-179 222,-203 326,-203C528,-203 644,-106 644,99l0,443M338,179C270,179 219,224 219,290C219,356 270,400 338,400C406,400 456,356 456,290C456,224 406,179 338,179z"
   id="glyph464" />
<glyph
   unicode="ǧ"
   horiz-adv-x="705"
   d="M430,607l130,152l-126,0l-86,-76l-86,76l-126,0l130,-152M463,542l0,-66C426,527 368,551 293,551C149,551 27,449 27,290C27,130 149,28 293,28C362,28 417,49 454,92l0,-18C454,-11 411,-57 309,-57C245,-57 171,-35 126,1l-69,-133C123,-179 222,-203 326,-203C528,-203 644,-106 644,99l0,443M338,179C270,179 219,224 219,290C219,356 270,400 338,400C406,400 456,356 456,290C456,224 406,179 338,179z"
   id="glyph466" />
<glyph
   unicode="ĝ"
   horiz-adv-x="705"
   d="M348,683l86,-76l126,0l-130,152l-164,0l-130,-152l126,0M463,542l0,-66C426,527 368,551 293,551C149,551 27,449 27,290C27,130 149,28 293,28C362,28 417,49 454,92l0,-18C454,-11 411,-57 309,-57C245,-57 171,-35 126,1l-69,-133C123,-179 222,-203 326,-203C528,-203 644,-106 644,99l0,443M338,179C270,179 219,224 219,290C219,356 270,400 338,400C406,400 456,356 456,290C456,224 406,179 338,179z"
   id="glyph468" />
<glyph
   unicode="ģ"
   horiz-adv-x="705"
   d="M348,598C410,598 441,625 441,665C441,694 425,715 394,725l37,100l-101,0l-49,-88C261,703 255,683 255,665C255,625 286,598 348,598M463,542l0,-66C426,527 368,551 293,551C149,551 27,449 27,290C27,130 149,28 293,28C362,28 417,49 454,92l0,-18C454,-11 411,-57 309,-57C245,-57 171,-35 126,1l-69,-133C123,-179 222,-203 326,-203C528,-203 644,-106 644,99l0,443M338,179C270,179 219,224 219,290C219,356 270,400 338,400C406,400 456,356 456,290C456,224 406,179 338,179z"
   id="glyph470" />
<glyph
   unicode="ġ"
   horiz-adv-x="705"
   d="M348,605C406,605 447,646 447,704C447,761 406,802 348,802C290,802 249,761 249,704C249,646 290,605 348,605M463,542l0,-66C426,527 368,551 293,551C149,551 27,449 27,290C27,130 149,28 293,28C362,28 417,49 454,92l0,-18C454,-11 411,-57 309,-57C245,-57 171,-35 126,1l-69,-133C123,-179 222,-203 326,-203C528,-203 644,-106 644,99l0,443M338,179C270,179 219,224 219,290C219,356 270,400 338,400C406,400 456,356 456,290C456,224 406,179 338,179z"
   id="glyph472" />
<glyph
   unicode="ß"
   horiz-adv-x="703"
   d="M544,394C586,429 614,477 614,537C614,657 517,751 346,751C189,751 61,658 61,478l0,-478l190,0l0,502C251,567 288,601 346,601C399,601 432,569 432,521C432,469 393,435 332,433l0,-146l53,0C448,287 484,262 484,215C484,168 448,142 394,142C365,142 342,146 319,154l-20,-147C328,-3 378,-9 419,-9C573,-9 677,72 677,210C677,301 627,364 544,394z"
   id="glyph474" />
<glyph
   unicode="`"
   horiz-adv-x="600"
   d="M262,607l136,0l-134,152l-190,0z"
   id="glyph476" />
<glyph
   unicode="̀"
   horiz-adv-x="0"
   d="M-338,607l136,0l-134,152l-190,0z"
   id="glyph478" />
<glyph
   unicode="&gt;"
   horiz-adv-x="609"
   d="M58,609l0,-146l319,-113l-319,-113l0,-146l493,182l0,154z"
   id="glyph480" />
<glyph
   unicode="≥"
   horiz-adv-x="609"
   d="M58,677l0,-144l290,-99l-290,-99l0,-144l493,168l0,150M58,0l493,0l0,145l-493,0z"
   id="glyph482" />
<glyph
   unicode="«"
   horiz-adv-x="605"
   d="M170,74l169,0l-135,198l135,197l-169,0l-139,-197M415,74l169,0l-135,198l135,197l-169,0l-139,-197z"
   id="glyph484" />
<glyph
   unicode="»"
   horiz-adv-x="605"
   d="M189,74l140,198l-140,197l-169,0l135,-197l-135,-198M434,74l140,198l-140,197l-169,0l135,-197l-135,-198z"
   id="glyph486" />
<glyph
   unicode="‹"
   horiz-adv-x="360"
   d="M170,74l169,0l-135,198l135,197l-169,0l-139,-197z"
   id="glyph488" />
<glyph
   unicode="›"
   horiz-adv-x="360"
   d="M189,74l140,198l-140,197l-169,0l135,-197l-135,-198z"
   id="glyph490" />
<glyph
   unicode="h"
   horiz-adv-x="696"
   d="M414,551C350,551 293,531 251,492l0,250l-190,0l0,-742l190,0l0,262C251,352 298,390 359,390C414,390 448,357 448,279l0,-279l190,0l0,310C638,478 541,551 414,551z"
   id="glyph492" />
<glyph
   unicode="ħ"
   horiz-adv-x="696"
   d="M414,551C350,551 293,531 251,492l0,97l169,0l0,99l-169,0l0,54l-190,0l0,-54l-61,0l0,-99l61,0l0,-589l190,0l0,262C251,352 298,390 359,390C414,390 448,357 448,279l0,-279l190,0l0,310C638,478 541,551 414,551z"
   id="glyph494" />
<glyph
   unicode="ĥ"
   horiz-adv-x="696"
   d="M156,875l86,-76l126,0l-130,152l-164,0l-130,-152l126,0M414,551C350,551 293,531 251,492l0,250l-190,0l0,-742l190,0l0,262C251,352 298,390 359,390C414,390 448,357 448,279l0,-279l190,0l0,310C638,478 541,551 414,551z"
   id="glyph496" />
<glyph
   unicode="̉"
   horiz-adv-x="0"
   d="M-264,597C-200,626 -166,668 -166,729C-166,797 -219,844 -297,844C-340,844 -383,832 -415,807l39,-74C-356,747 -338,753 -318,753C-291,753 -273,738 -273,713C-273,692 -284,673 -322,655z"
   id="glyph498" />
<glyph
   unicode="˝"
   horiz-adv-x="600"
   d="M125,607l132,0l101,152l-170,0M343,607l132,0l100,152l-170,0z"
   id="glyph500" />
<glyph
   unicode="-"
   horiz-adv-x="388"
   d="M48,212l292,0l0,146l-292,0z"
   id="glyph502" />
<glyph
   unicode="i"
   horiz-adv-x="313"
   d="M156,602C226,602 272,646 272,706C272,763 226,804 156,804C86,804 40,760 40,703C40,646 86,602 156,602M61,0l190,0l0,542l-190,0z"
   id="glyph504" />
<glyph
   unicode="í"
   horiz-adv-x="313"
   d="M58,607l136,0l188,152l-190,0M61,0l190,0l0,542l-190,0z"
   id="glyph506" />
<glyph
   unicode="ĭ"
   horiz-adv-x="313"
   d="M156,598C254,598 326,660 327,759l-111,0C216,719 194,691 156,691C118,691 96,719 96,759l-111,0C-14,660 58,598 156,598M61,0l190,0l0,542l-190,0z"
   id="glyph508" />
<glyph
   unicode="î"
   horiz-adv-x="313"
   d="M156,676l62,-69l125,0l-107,152l-160,0l-107,-152l125,0M61,0l190,0l0,542l-190,0z"
   id="glyph510" />
<glyph
   unicode="ï"
   horiz-adv-x="313"
   d="M69,606C110,606 142,637 142,684C142,730 110,762 69,762C27,762 -5,730 -5,684C-5,638 27,606 69,606M244,606C285,606 317,637 317,684C317,730 285,762 244,762C202,762 170,730 170,684C170,638 202,606 244,606M61,0l190,0l0,542l-190,0z"
   id="glyph512" />
<glyph
   unicode="ì"
   horiz-adv-x="313"
   d="M118,607l136,0l-134,152l-190,0M61,0l190,0l0,542l-190,0z"
   id="glyph514" />
<glyph
   unicode="ĳ"
   horiz-adv-x="633"
   d="M156,602C226,602 272,646 272,706C272,763 226,804 156,804C86,804 40,760 40,703C40,646 86,602 156,602M477,602C547,602 593,646 593,706C593,763 547,804 477,804C407,804 361,760 361,703C361,646 407,602 477,602M61,0l190,0l0,542l-190,0M351,-203C491,-203 572,-118 572,14l0,528l-190,0l0,-527C382,-34 359,-56 326,-56C304,-56 283,-50 267,-40l-48,-135C252,-194 301,-203 351,-203z"
   id="glyph516" />
<glyph
   unicode="ī"
   horiz-adv-x="313"
   d="M-4,632l320,0l0,102l-320,0M61,0l190,0l0,542l-190,0z"
   id="glyph518" />
<glyph
   unicode="∞"
   horiz-adv-x="935"
   d="M687,570C579,570 516,521 468,461C422,521 359,570 251,570C123,570 27,477 27,350C27,224 123,130 251,130C359,130 422,179 468,239C516,179 579,130 687,130C812,130 908,224 908,350C908,477 812,570 687,570M264,262C214,262 177,300 177,350C177,400 214,438 264,438C322,438 357,400 392,350C357,300 322,262 264,262M671,262C613,262 577,300 544,350C577,400 613,438 671,438C721,438 757,400 757,350C757,300 721,262 671,262z"
   id="glyph520" />
<glyph
   unicode="∫"
   horiz-adv-x="455"
   d="M104,-203C242,-203 322,-118 322,12l0,526C322,587 345,609 379,609C400,609 420,603 437,593l47,134C451,747 401,756 351,756C212,756 132,671 132,541l0,-526C132,-34 109,-56 76,-56C54,-56 34,-50 18,-40l-47,-134C4,-193 53,-203 104,-203z"
   id="glyph522" />
<glyph
   unicode="į"
   horiz-adv-x="313"
   d="M156,602C226,602 272,646 272,706C272,763 226,804 156,804C86,804 40,760 40,703C40,646 86,602 156,602M256,-135C246,-142 235,-146 224,-146C202,-146 184,-128 184,-101C184,-68 200,-37 251,0l0,542l-190,0l0,-542l64,0C88,-33 68,-74 68,-118C68,-189 121,-236 200,-236C231,-236 260,-227 279,-214z"
   id="glyph524" />
<glyph
   unicode="ĩ"
   horiz-adv-x="313"
   d="M225,600C295,600 333,655 333,757l-91,0C242,723 232,704 212,704C185,704 153,768 87,768C17,768 -21,714 -21,609l91,0C70,645 80,665 100,665C127,665 159,600 225,600M61,0l190,0l0,542l-190,0z"
   id="glyph526" />
<glyph
   unicode="j"
   horiz-adv-x="320"
   d="M164,602C234,602 280,646 280,706C280,763 234,804 164,804C94,804 48,760 48,703C48,646 94,602 164,602M38,-203C178,-203 259,-118 259,14l0,528l-190,0l0,-527C69,-34 46,-56 13,-56C-9,-56 -30,-50 -46,-40l-48,-135C-61,-194 -12,-203 38,-203z"
   id="glyph528" />
<glyph
   unicode="ĵ"
   horiz-adv-x="320"
   d="M164,676l62,-69l125,0l-107,152l-160,0l-107,-152l125,0M69,15C69,-34 46,-56 13,-56C-9,-56 -30,-50 -46,-40l-48,-135C-61,-194 -12,-203 38,-203C178,-203 259,-118 259,14l0,528l-190,0z"
   id="glyph530" />
<glyph
   unicode="k"
   horiz-adv-x="686"
   d="M459,0l230,0l-244,310l225,232l-225,0l-194,-189l0,389l-190,0l0,-742l190,0l0,133l56,57z"
   id="glyph532" />
<glyph
   unicode="ķ"
   horiz-adv-x="686"
   d="M445,310l225,232l-225,0l-194,-189l0,389l-190,0l0,-742l190,0l0,133l56,57l152,-190l230,0M320,-62C271,-62 241,-89 241,-129C241,-158 254,-179 281,-189l-26,-79l86,0l37,67C396,-169 399,-147 399,-129C399,-89 369,-62 320,-62z"
   id="glyph534" />
<glyph
   unicode="ĸ"
   horiz-adv-x="667"
   d="M459,0l230,0l-244,310l225,232l-225,0l-194,-189l0,189l-190,0l0,-542l190,0l0,133l56,57z"
   id="glyph536" />
<glyph
   unicode="l"
   horiz-adv-x="313"
   d="M61,0l190,0l0,742l-190,0z"
   id="glyph538" />
<glyph
   unicode="ĺ"
   horiz-adv-x="313"
   d="M58,807l136,0l188,152l-190,0M61,0l190,0l0,742l-190,0z"
   id="glyph540" />
<glyph
   unicode="ľ"
   horiz-adv-x="313"
   d="M326,582l112,0l25,205l-137,0M61,0l190,0l0,742l-190,0z"
   id="glyph542" />
<glyph
   unicode="ļ"
   horiz-adv-x="313"
   d="M61,742l0,-742l190,0l0,742M156,-62C107,-62 77,-89 77,-129C77,-158 90,-179 117,-189l-26,-79l86,0l37,67C232,-169 235,-147 235,-129C235,-89 205,-62 156,-62z"
   id="glyph544" />
<glyph
   unicode="ŀ"
   horiz-adv-x="462"
   d="M61,0l190,0l0,742l-190,0M387,276C440,276 478,313 478,366C478,419 440,456 387,456C334,456 297,419 297,366C297,313 334,276 387,276z"
   id="glyph546" />
<glyph
   unicode="&lt;"
   horiz-adv-x="609"
   d="M551,609l-493,-182l0,-154l493,-182l0,146l-319,113l319,113z"
   id="glyph548" />
<glyph
   unicode="≤"
   horiz-adv-x="609"
   d="M551,677l-493,-168l0,-150l493,-168l0,144l-290,99l290,99M58,0l493,0l0,145l-493,0z"
   id="glyph550" />
<glyph
   unicode="₤"
   horiz-adv-x="681"
   d="M323,232l226,0l0,98l-226,0l0,40l226,0l0,98l-219,0C349,523 400,550 476,550C522,550 571,541 612,517l58,152C618,698 548,714 466,714C271,714 151,624 129,468l-99,0l0,-98l95,0l0,-40l-95,0l0,-98l95,0l0,-79l-95,0l0,-153l618,0l0,153l-325,0z"
   id="glyph552" />
<glyph
   unicode="¬"
   horiz-adv-x="609"
   d="M551,423l-493,0l0,-145l339,0l0,-173l154,0z"
   id="glyph554" />
<glyph
   unicode="ſ"
   horiz-adv-x="349"
   d="M321,751C176,751 95,666 95,536l0,-14l-79,0l0,-142l79,0l0,-380l190,0l0,534C285,582 304,605 343,605C363,605 384,598 400,589l47,134C416,742 367,751 321,751z"
   id="glyph556" />
<glyph
   unicode="◊"
   horiz-adv-x="496"
   d="M247,-2l222,332l-220,329l-222,-329M248,184l-99,146l99,145l98,-145z"
   id="glyph558" />
<glyph
   unicode="ł"
   horiz-adv-x="347"
   d="M383,454l-63,90l-52,-39l0,237l-190,0l0,-378l-115,-86l64,-89l51,38l0,-227l190,0l0,368z"
   id="glyph560" />
<glyph
   unicode="m"
   horiz-adv-x="1045"
   d="M767,551C689,551 622,520 579,466C541,524 478,551 404,551C340,551 283,529 242,485l0,57l-181,0l0,-542l190,0l0,269C251,353 291,390 347,390C398,390 429,357 429,279l0,-279l190,0l0,269C619,353 659,390 714,390C764,390 796,357 796,279l0,-279l190,0l0,310C986,478 893,551 767,551z"
   id="glyph562" />
<glyph
   unicode="¯"
   horiz-adv-x="600"
   d="M103,632l394,0l0,102l-394,0z"
   id="glyph564" />
<glyph
   unicode="−"
   horiz-adv-x="609"
   d="M58,277l493,0l0,146l-493,0z"
   id="glyph566" />
<glyph
   unicode="′"
   horiz-adv-x="242"
   d="M53,408l135,0l13,292l-160,0z"
   id="glyph568" />
<glyph
   unicode="×"
   horiz-adv-x="609"
   d="M530,473l-102,103l-123,-123l-123,123l-102,-103l123,-123l-123,-123l102,-103l123,123l123,-123l102,103l-123,123z"
   id="glyph570" />
<glyph
   unicode="n"
   horiz-adv-x="696"
   d="M414,551C346,551 285,528 242,483l0,59l-181,0l0,-542l190,0l0,262C251,352 298,390 359,390C414,390 448,357 448,279l0,-279l190,0l0,310C638,478 541,551 414,551z"
   id="glyph572" />
<glyph
   unicode="ń"
   horiz-adv-x="696"
   d="M578,759l-190,0l-134,-152l136,0M414,551C346,551 285,528 242,483l0,59l-181,0l0,-542l190,0l0,262C251,352 298,390 359,390C414,390 448,357 448,279l0,-279l190,0l0,310C638,478 541,551 414,551z"
   id="glyph574" />
<glyph
   unicode="ŉ"
   horiz-adv-x="849"
   d="M35,437l98,0l26,263l-123,0M567,551C499,551 438,528 395,483l0,59l-181,0l0,-542l190,0l0,262C404,352 451,390 512,390C567,390 601,357 601,279l0,-279l190,0l0,310C791,478 694,551 567,551z"
   id="glyph576" />
<glyph
   unicode="ň"
   horiz-adv-x="696"
   d="M434,607l130,152l-126,0l-86,-76l-86,76l-126,0l130,-152M414,551C346,551 285,528 242,483l0,59l-181,0l0,-542l190,0l0,262C251,352 298,390 359,390C414,390 448,357 448,279l0,-279l190,0l0,310C638,478 541,551 414,551z"
   id="glyph578" />
<glyph
   unicode="ņ"
   horiz-adv-x="696"
   d="M414,551C346,551 285,528 242,483l0,59l-181,0l0,-542l190,0l0,262C251,352 298,390 359,390C414,390 448,357 448,279l0,-279l190,0l0,310C638,478 541,551 414,551M352,-62C303,-62 273,-89 273,-129C273,-158 286,-179 313,-189l-26,-79l86,0l37,67C428,-169 431,-147 431,-129C431,-89 401,-62 352,-62z"
   id="glyph580" />
<glyph
   unicode="9"
   horiz-adv-x="649"
   d="M290,714C138,714 16,621 16,475C16,341 125,254 257,254C323,254 375,272 414,305C403,199 337,143 238,143C193,143 149,151 109,179l-72,-142C88,4 164,-14 242,-14C464,-14 615,125 615,369C615,596 487,714 290,714M304,396C247,396 208,430 208,484C208,539 247,573 303,573C363,573 401,537 401,485C401,432 361,396 304,396z"
   id="glyph582" />
<glyph
   unicode="≠"
   horiz-adv-x="609"
   d="M551,404l0,145l-68,0l55,106l-152,0l-55,-106l-273,0l0,-145l198,0l-55,-108l-143,0l0,-145l68,0l-55,-106l153,0l55,106l272,0l0,145l-198,0l56,108z"
   id="glyph584" />
<glyph
   unicode="ñ"
   horiz-adv-x="696"
   d="M286,662C322,662 359,600 430,600C507,600 555,663 557,757l-93,0C462,726 445,707 418,707C382,707 345,768 274,768C197,768 149,706 147,609l93,0C242,642 259,662 286,662M414,551C346,551 285,528 242,483l0,59l-181,0l0,-542l190,0l0,262C251,352 298,390 359,390C414,390 448,357 448,279l0,-279l190,0l0,310C638,478 541,551 414,551z"
   id="glyph586" />
<glyph
   unicode="#"
   horiz-adv-x="730"
   d="M713,422l0,129l-126,0l19,149l-136,0l-19,-149l-123,0l19,149l-136,0l-19,-149l-142,0l0,-129l126,0l-17,-144l-142,0l0,-129l126,0l-19,-149l136,0l19,149l123,0l-19,-149l136,0l19,149l141,0l0,129l-125,0l17,144M418,278l-123,0l17,144l123,0z"
   id="glyph588" />
<glyph
   unicode="o"
   horiz-adv-x="666"
   d="M333,-9C512,-9 639,108 639,272C639,435 512,551 333,551C156,551 27,435 27,272C27,108 156,-9 333,-9M333,142C269,142 219,189 219,272C219,354 269,400 333,400C398,400 447,354 447,272C447,189 398,142 333,142z"
   id="glyph590" />
<glyph
   unicode="ó"
   horiz-adv-x="666"
   d="M233,607l136,0l188,152l-190,0M333,-9C512,-9 639,108 639,272C639,435 512,551 333,551C156,551 27,435 27,272C27,108 156,-9 333,-9M333,142C269,142 219,189 219,272C219,354 269,400 333,400C398,400 447,354 447,272C447,189 398,142 333,142z"
   id="glyph592" />
<glyph
   unicode="ŏ"
   horiz-adv-x="666"
   d="M331,598C443,598 523,660 527,759l-116,0C409,719 375,693 331,693C287,693 253,719 251,759l-116,0C139,660 219,598 331,598M333,-9C512,-9 639,108 639,272C639,435 512,551 333,551C156,551 27,435 27,272C27,108 156,-9 333,-9M333,142C269,142 219,189 219,272C219,354 269,400 333,400C398,400 447,354 447,272C447,189 398,142 333,142z"
   id="glyph594" />
<glyph
   unicode="ô"
   horiz-adv-x="666"
   d="M331,683l86,-76l126,0l-130,152l-164,0l-130,-152l126,0M333,551C156,551 27,435 27,272C27,108 156,-9 333,-9C512,-9 639,108 639,272C639,435 512,551 333,551M333,142C269,142 219,189 219,272C219,354 269,400 333,400C398,400 447,354 447,272C447,189 398,142 333,142z"
   id="glyph596" />
<glyph
   unicode="ö"
   horiz-adv-x="666"
   d="M225,606C270,606 304,637 304,684C304,731 270,763 225,763C180,763 146,731 146,684C146,637 180,606 225,606M437,606C482,606 516,637 516,684C516,731 482,763 437,763C392,763 358,731 358,684C358,637 392,606 437,606M333,-9C512,-9 639,108 639,272C639,435 512,551 333,551C156,551 27,435 27,272C27,108 156,-9 333,-9M333,142C269,142 219,189 219,272C219,354 269,400 333,400C398,400 447,354 447,272C447,189 398,142 333,142z"
   id="glyph598" />
<glyph
   unicode="œ"
   horiz-adv-x="1063"
   d="M1036,272C1036,449 904,551 746,551C661,551 589,521 540,471C490,521 419,551 330,551C156,551 27,435 27,272C27,108 156,-9 330,-9C419,-9 492,22 541,73C593,22 669,-9 766,-9C861,-9 944,21 997,79l-103,104C857,151 820,136 771,136C700,136 652,168 636,223l397,0C1035,238 1036,255 1036,272M746,416C806,416 846,380 856,323l-222,0C644,380 686,416 746,416M333,142C269,142 219,189 219,272C219,354 269,400 333,400C398,400 447,354 447,272C447,189 398,142 333,142z"
   id="glyph600" />
<glyph
   unicode="˛"
   horiz-adv-x="600"
   d="M218,-236C258,-236 300,-226 325,-213l-25,82C285,-139 262,-146 240,-146C204,-146 185,-128 185,-102C185,-68 214,-38 300,0l-70,45C124,9 70,-50 70,-119C70,-189 124,-236 218,-236z"
   id="glyph602" />
<glyph
   unicode="ò"
   horiz-adv-x="666"
   d="M293,607l136,0l-134,152l-190,0M333,-9C512,-9 639,108 639,272C639,435 512,551 333,551C156,551 27,435 27,272C27,108 156,-9 333,-9M333,142C269,142 219,189 219,272C219,354 269,400 333,400C398,400 447,354 447,272C447,189 398,142 333,142z"
   id="glyph604" />
<glyph
   unicode="ơ"
   horiz-adv-x="666"
   d="M562,464C607,492 634,539 634,597C634,639 619,675 598,703l-109,-40C501,649 511,628 511,605C511,568 492,542 453,542C421,542 386,551 335,551C155,551 27,435 27,272C27,108 155,-9 333,-9C511,-9 639,108 639,272C639,349 611,415 562,464M333,142C269,142 219,189 219,272C219,354 269,400 333,400C398,400 447,354 447,272C447,189 397,142 333,142z"
   id="glyph606" />
<glyph
   unicode="ő"
   horiz-adv-x="666"
   d="M156,607l132,0l101,152l-170,0M374,607l132,0l100,152l-170,0M333,-9C512,-9 639,108 639,272C639,435 512,551 333,551C156,551 27,435 27,272C27,108 156,-9 333,-9M333,142C269,142 219,189 219,272C219,354 269,400 333,400C398,400 447,354 447,272C447,189 398,142 333,142z"
   id="glyph608" />
<glyph
   unicode="ō"
   horiz-adv-x="666"
   d="M134,632l394,0l0,102l-394,0M333,-9C512,-9 639,108 639,272C639,435 512,551 333,551C156,551 27,435 27,272C27,108 156,-9 333,-9M333,142C269,142 219,189 219,272C219,354 269,400 333,400C398,400 447,354 447,272C447,189 398,142 333,142z"
   id="glyph610" />
<glyph
   unicode="1"
   horiz-adv-x="405"
   d="M6,700l0,-153l130,0l0,-547l198,0l0,700z"
   id="glyph612" />
<glyph
   unicode="⅛"
   horiz-adv-x="1050"
   d="M382,382l-82,0l0,318l-222,0l0,-97l86,0l0,-221l-95,0l0,-97l313,0M693,700l-478,-700l143,0l478,700M971,218C1003,237 1021,265 1021,302C1021,375 947,424 835,424C724,424 649,375 649,302C649,265 667,237 699,218C659,197 636,165 636,122C636,43 716,-9 835,-9C954,-9 1034,43 1034,122C1034,165 1011,197 971,218M835,337C871,337 892,321 892,297C892,273 870,256 835,256C800,256 778,273 778,297C778,321 799,337 835,337M835,78C793,78 768,98 768,126C768,155 794,174 835,174C876,174 902,155 902,126C902,98 876,78 835,78z"
   id="glyph614" />
<glyph
   unicode="½"
   horiz-adv-x="1050"
   d="M382,382l-82,0l0,318l-222,0l0,-97l86,0l0,-221l-95,0l0,-97l313,0M693,700l-478,-700l143,0l478,700M845,99l76,65C986,221 1001,255 1001,295C1001,372 931,424 822,424C726,424 663,387 633,334l97,-52C746,308 774,323 810,323C850,323 867,306 867,285C867,269 859,252 824,222l-166,-143l0,-79l357,0l0,99z"
   id="glyph616" />
<glyph
   unicode="¼"
   horiz-adv-x="1050"
   d="M382,382l-82,0l0,318l-222,0l0,-97l86,0l0,-221l-95,0l0,-97l313,0M693,700l-478,-700l143,0l478,700M1035,175l-58,0l0,63l-115,0l0,-63l-83,0l171,240l-142,0l-182,-257l0,-82l222,0l0,-76l129,0l0,76l58,0z"
   id="glyph618" />
<glyph
   unicode="ª"
   horiz-adv-x="417"
   d="M191,751C138,751 77,737 37,712l42,-80C103,649 140,660 171,660C218,660 240,644 243,613l-67,0C70,613 23,578 23,517C23,461 66,417 151,417C202,417 236,433 253,464l0,-42l120,0l0,178C373,704 307,751 191,751M188,492C161,492 145,504 145,522C145,541 161,551 196,551l47,0l0,-26C234,503 213,492 188,492z"
   id="glyph620" />
<glyph
   unicode="º"
   horiz-adv-x="432"
   d="M216,417C331,417 412,486 412,584C412,681 331,751 216,751C103,751 20,681 20,584C20,486 103,417 216,417M216,513C177,513 148,539 148,584C148,630 177,655 216,655C255,655 284,630 284,584C284,539 255,513 216,513z"
   id="glyph622" />
<glyph
   unicode="ø"
   horiz-adv-x="666"
   d="M522,497l72,110l-86,0l-50,-77C420,544 378,551 333,551C156,551 27,435 27,272C27,176 71,96 143,47l-76,-117l86,0l54,83C245,-1 287,-9 333,-9C512,-9 639,108 639,272C639,368 595,448 522,497M219,272C219,354 269,400 333,400C346,400 358,398 370,395l-131,-201C226,214 219,240 219,272M333,142C320,142 307,144 295,148l132,202C440,330 447,304 447,272C447,189 398,142 333,142z"
   id="glyph624" />
<glyph
   unicode="ǿ"
   horiz-adv-x="666"
   d="M554,759l-190,0l-134,-152l136,0M522,497l72,110l-86,0l-50,-77C420,544 378,551 333,551C156,551 27,435 27,272C27,176 71,96 143,47l-76,-117l86,0l54,83C245,-1 287,-9 333,-9C512,-9 639,108 639,272C639,368 595,448 522,497M219,272C219,354 269,400 333,400C346,400 358,398 370,395l-131,-201C226,214 219,240 219,272M333,142C320,142 307,144 295,148l132,202C440,330 447,304 447,272C447,189 398,142 333,142z"
   id="glyph626" />
<glyph
   unicode="õ"
   horiz-adv-x="666"
   d="M409,600C486,600 534,663 536,757l-93,0C441,726 424,707 397,707C361,707 324,768 253,768C176,768 128,706 126,609l93,0C221,642 238,662 265,662C301,662 338,600 409,600M333,-9C512,-9 639,108 639,272C639,435 512,551 333,551C156,551 27,435 27,272C27,108 156,-9 333,-9M333,142C269,142 219,189 219,272C219,354 269,400 333,400C398,400 447,354 447,272C447,189 398,142 333,142z"
   id="glyph628" />
<glyph
   unicode="p"
   horiz-adv-x="695"
   d="M402,551C331,551 278,531 242,488l0,54l-181,0l0,-736l190,0l0,242C288,10 339,-9 402,-9C549,-9 668,99 668,271C668,443 549,551 402,551M362,142C298,142 248,189 248,271C248,353 298,400 362,400C426,400 476,353 476,271C476,189 426,142 362,142z"
   id="glyph630" />
<glyph
   unicode="¶"
   horiz-adv-x="707"
   d="M228,-100l154,0l0,709l101,0l0,-709l154,0l0,842l-376,0C110,742 11,666 11,544C11,425 106,350 228,347z"
   id="glyph632" />
<glyph
   unicode="("
   horiz-adv-x="369"
   d="M189,-194l182,0C283,-39 246,109 246,274C246,439 283,587 371,742l-182,0C106,622 60,457 60,274C60,91 106,-74 189,-194z"
   id="glyph634" />
<glyph
   unicode=")"
   horiz-adv-x="369"
   d="M180,-194C263,-74 309,91 309,274C309,457 263,622 180,742l-182,0C86,587 123,439 123,274C123,109 86,-39 -2,-194z"
   id="glyph636" />
<glyph
   unicode="∂"
   horiz-adv-x="700"
   d="M254,749C202,749 144,743 92,728l24,-155C157,588 203,594 251,594C382,594 453,527 457,392C418,429 364,449 294,449C156,449 44,361 44,225C44,80 167,-14 324,-14C527,-14 656,118 656,340C656,607 507,749 254,749M338,127C280,127 237,162 237,217C237,273 279,308 339,308C397,308 441,271 441,217C441,165 399,127 338,127z"
   id="glyph638" />
<glyph
   unicode="%"
   horiz-adv-x="897"
   d="M201,321C305,321 381,393 381,515C381,636 305,709 201,709C98,709 22,636 22,515C22,393 98,321 201,321M137,0l144,0l478,700l-144,0M201,416C169,416 142,444 142,515C142,586 169,614 201,614C235,614 260,586 260,515C260,444 235,416 201,416M695,-9C799,-9 875,63 875,185C875,306 799,379 695,379C591,379 516,306 516,185C516,63 591,-9 695,-9M695,86C662,86 636,114 636,185C636,256 662,284 695,284C728,284 754,256 754,185C754,114 728,86 695,86z"
   id="glyph640" />
<glyph
   unicode="."
   horiz-adv-x="283"
   d="M141,-9C206,-9 255,38 255,104C255,172 206,216 141,216C77,216 27,172 27,104C27,38 77,-9 141,-9z"
   id="glyph642" />
<glyph
   unicode="·"
   horiz-adv-x="323"
   d="M161,172C228,172 275,217 275,286C275,354 228,399 161,399C95,399 47,354 47,286C47,217 95,172 161,172z"
   id="glyph644" />
<glyph
   unicode="‰"
   horiz-adv-x="1285"
   d="M201,321C305,321 381,393 381,515C381,636 305,709 201,709C98,709 22,636 22,515C22,393 98,321 201,321M137,0l144,0l478,700l-144,0M201,416C169,416 142,444 142,515C142,586 169,614 201,614C235,614 260,586 260,515C260,444 235,416 201,416M695,-9C799,-9 875,63 875,185C875,306 799,379 695,379C591,379 516,306 516,185C516,63 591,-9 695,-9M1084,-9C1188,-9 1263,63 1263,185C1263,306 1188,379 1084,379C980,379 904,306 904,185C904,63 980,-9 1084,-9M695,86C662,86 636,114 636,185C636,256 662,284 695,284C728,284 754,256 754,185C754,114 728,86 695,86M1084,86C1051,86 1025,114 1025,185C1025,256 1051,284 1084,284C1117,284 1143,256 1143,185C1143,114 1117,86 1084,86z"
   id="glyph646" />
<glyph
   unicode="₧"
   horiz-adv-x="1736"
   d="M390,700l-320,0l0,-700l198,0l0,183l122,0C581,183 701,282 701,441C701,601 581,700 390,700M1072,138C1038,138 1015,160 1015,200l0,180l124,0l0,142l-124,0l0,141l-190,0l0,-141l-79,0l0,-142l79,0l0,-182C825,59 906,-9 1045,-9C1095,-9 1144,1 1177,22l-47,133C1114,144 1093,138 1072,138M1396,378C1396,398 1419,416 1483,416C1531,416 1585,406 1639,376l57,129C1642,535 1558,551 1482,551C1312,551 1218,473 1218,371C1218,154 1538,237 1538,164C1538,141 1517,127 1453,127C1387,127 1314,146 1264,177l-57,-130C1260,14 1355,-9 1447,-9C1623,-9 1715,69 1715,169C1715,384 1396,303 1396,378M378,339l-110,0l0,205l110,0C460,544 501,506 501,441C501,377 460,339 378,339z"
   id="glyph648" />
<glyph
   unicode="π"
   horiz-adv-x="731"
   d="M718,542l-551,0C58,542 -18,476 -18,385C-18,341 -3,285 21,243l132,44C141,309 132,336 132,353C132,388 155,407 192,407l20,0l-44,-407l162,0l43,407l67,0l0,-407l162,0l0,407l116,0z"
   id="glyph650" />
<glyph
   unicode="+"
   horiz-adv-x="609"
   d="M551,423l-169,0l0,165l-154,0l0,-165l-170,0l0,-146l170,0l0,-165l154,0l0,165l169,0z"
   id="glyph652" />
<glyph
   unicode="±"
   horiz-adv-x="609"
   d="M382,518l0,158l-154,0l0,-158l-170,0l0,-139l170,0l0,-158l154,0l0,158l169,0l0,139M58,0l493,0l0,145l-493,0z"
   id="glyph654" />
<glyph
   unicode="∏"
   horiz-adv-x="806"
   d="M70,-194l198,0l0,728l270,0l0,-728l198,0l0,894l-666,0z"
   id="glyph656" />
<glyph
   unicode="q"
   horiz-adv-x="695"
   d="M453,542l0,-54C417,531 364,551 293,551C146,551 27,443 27,271C27,99 146,-9 293,-9C356,-9 407,10 444,48l0,-242l190,0l0,736M333,142C269,142 219,189 219,271C219,353 269,400 333,400C397,400 447,353 447,271C447,189 397,142 333,142z"
   id="glyph658" />
<glyph
   unicode="?"
   horiz-adv-x="597"
   d="M212,255l178,0C390,347 554,370 554,526C554,648 444,714 290,714C143,714 46,655 -7,566l149,-80C168,531 213,558 267,558C318,558 355,534 355,494C355,419 212,386 212,255M301,-9C368,-9 415,38 415,96C415,155 368,199 301,199C234,199 188,155 188,96C188,38 234,-9 301,-9z"
   id="glyph660" />
<glyph
   unicode="¿"
   horiz-adv-x="597"
   d="M296,343C363,343 409,388 409,446C409,504 363,551 296,551C229,551 182,504 182,446C182,388 229,343 296,343M307,-167C454,-167 551,-108 604,-19l-149,79C429,16 384,-11 330,-11C279,-11 242,13 242,50C242,125 385,158 385,287l-178,0C207,197 43,174 43,19C43,-101 153,-167 307,-167z"
   id="glyph662" />
<glyph
   unicode="&quot;"
   horiz-adv-x="462"
   d="M53,408l135,0l13,292l-160,0M273,408l135,0l13,292l-160,0z"
   id="glyph664" />
<glyph
   unicode="„"
   horiz-adv-x="545"
   d="M142,216C76,216 28,172 28,104C28,57 51,23 87,6l-47,-163l119,0l63,146C251,54 255,76 255,104C255,172 207,216 142,216M404,216C338,216 290,172 290,104C290,57 313,23 349,6l-47,-163l119,0l63,146C513,54 517,76 517,104C517,172 469,216 404,216z"
   id="glyph666" />
<glyph
   unicode="“"
   horiz-adv-x="545"
   d="M196,579l47,163l-119,0l-64,-147C31,531 27,509 27,481C27,413 75,369 141,369C206,369 255,413 255,481C255,528 232,562 196,579M458,579l47,163l-119,0l-64,-147C293,531 289,509 289,481C289,413 337,369 403,369C468,369 517,413 517,481C517,528 494,562 458,579z"
   id="glyph668" />
<glyph
   unicode="”"
   horiz-adv-x="545"
   d="M142,751C76,751 28,707 28,639C28,592 51,558 87,541l-47,-163l119,0l64,146C251,589 255,611 255,639C255,707 207,751 142,751M404,751C338,751 290,707 290,639C290,592 313,558 349,541l-47,-163l119,0l64,146C513,589 517,611 517,639C517,707 469,751 404,751z"
   id="glyph670" />
<glyph
   unicode="‘"
   horiz-adv-x="283"
   d="M196,579l47,163l-119,0l-64,-147C31,531 27,509 27,481C27,413 75,369 141,369C206,369 255,413 255,481C255,528 232,562 196,579z"
   id="glyph672" />
<glyph
   unicode="’"
   horiz-adv-x="283"
   d="M142,751C76,751 28,707 28,639C28,592 51,558 87,541l-47,-163l119,0l64,146C251,589 255,611 255,639C255,707 207,751 142,751z"
   id="glyph674" />
<glyph
   unicode="‚"
   horiz-adv-x="283"
   d="M142,216C76,216 28,172 28,104C28,57 51,23 87,6l-47,-163l119,0l63,146C251,54 255,76 255,104C255,172 207,216 142,216z"
   id="glyph676" />
<glyph
   unicode="'"
   horiz-adv-x="242"
   d="M53,408l135,0l13,292l-160,0z"
   id="glyph678" />
<glyph
   unicode="r"
   horiz-adv-x="443"
   d="M242,477l0,65l-181,0l0,-542l190,0l0,249C251,344 304,383 381,383C395,383 407,382 424,380l0,171C344,551 281,526 242,477z"
   id="glyph680" />
<glyph
   unicode="ŕ"
   horiz-adv-x="443"
   d="M468,759l-190,0l-134,-152l136,0M242,477l0,65l-181,0l0,-542l190,0l0,249C251,344 304,383 381,383C395,383 407,382 424,380l0,171C344,551 281,526 242,477z"
   id="glyph682" />
<glyph
   unicode="√"
   horiz-adv-x="830"
   d="M668,742l-222,-700l-116,381l-272,0l0,-145l132,0l157,-472l197,0l300,936z"
   id="glyph684" />
<glyph
   unicode="ř"
   horiz-adv-x="443"
   d="M324,607l130,152l-126,0l-86,-76l-86,76l-126,0l130,-152M242,477l0,65l-181,0l0,-542l190,0l0,249C251,344 304,383 381,383C395,383 407,382 424,380l0,171C344,551 281,526 242,477z"
   id="glyph686" />
<glyph
   unicode="ŗ"
   horiz-adv-x="443"
   d="M242,477l0,65l-181,0l0,-542l190,0l0,249C251,344 304,383 381,383C395,383 407,382 424,380l0,171C344,551 281,526 242,477M156,-62C107,-62 77,-89 77,-129C77,-158 90,-179 117,-189l-26,-79l86,0l37,67C232,-169 235,-147 235,-129C235,-89 205,-62 156,-62z"
   id="glyph688" />
<glyph
   unicode="®"
   horiz-adv-x="775"
   d="M388,703C187,703 34,547 34,350C34,153 187,-3 386,-3C585,-3 740,153 740,352C740,551 589,703 388,703M589,161l-81,124C551,308 574,347 574,402C574,487 510,541 402,541l-174,0l0,-382l123,0l0,104l47,0l67,-104l121,0C538,106 467,73 386,73C229,73 115,194 115,350C115,506 229,627 388,627C547,627 659,509 659,352C659,277 633,211 589,161M351,351l0,102l43,0C431,453 452,434 452,402C452,371 431,351 394,351z"
   id="glyph690" />
<glyph
   unicode="˚"
   horiz-adv-x="600"
   d="M300,591C374,591 432,647 432,718C432,789 374,846 300,846C225,846 168,789 168,718C168,647 225,591 300,591M300,661C268,661 243,685 243,718C243,752 268,776 300,776C332,776 357,752 357,718C357,685 332,661 300,661z"
   id="glyph692" />
<glyph
   unicode="s"
   horiz-adv-x="547"
   d="M258,-9C434,-9 526,69 526,169C526,384 207,303 207,378C207,398 230,416 294,416C342,416 396,406 450,376l57,129C453,535 369,551 293,551C123,551 29,473 29,371C29,154 349,237 349,164C349,141 328,127 264,127C198,127 125,146 75,177l-57,-130C71,14 166,-9 258,-9z"
   id="glyph694" />
<glyph
   unicode="ś"
   horiz-adv-x="547"
   d="M170,607l136,0l188,152l-190,0M258,-9C434,-9 526,69 526,169C526,384 207,303 207,378C207,398 230,416 294,416C342,416 396,406 450,376l57,129C453,535 369,551 293,551C123,551 29,473 29,371C29,154 349,237 349,164C349,141 328,127 264,127C198,127 125,146 75,177l-57,-130C71,14 166,-9 258,-9z"
   id="glyph696" />
<glyph
   unicode="š"
   horiz-adv-x="547"
   d="M350,607l130,152l-126,0l-86,-76l-86,76l-126,0l130,-152M207,378C207,398 230,416 294,416C342,416 396,406 450,376l57,129C453,535 369,551 293,551C123,551 29,473 29,371C29,154 349,237 349,164C349,141 328,127 264,127C198,127 125,146 75,177l-57,-130C71,14 166,-9 258,-9C434,-9 526,69 526,169C526,384 207,303 207,378z"
   id="glyph698" />
<glyph
   unicode="ş"
   horiz-adv-x="547"
   d="M526,169C526,384 207,303 207,378C207,398 230,416 294,416C342,416 396,406 450,376l57,129C453,535 369,551 293,551C123,551 29,473 29,371C29,154 349,237 349,164C349,141 328,127 264,127C198,127 125,146 75,177l-57,-130C63,19 137,-1 214,-7l-22,-94l37,0C261,-101 274,-111 274,-126C274,-142 260,-154 224,-154C200,-154 179,-148 162,-140l-26,-75C158,-227 197,-236 231,-236C326,-236 389,-196 389,-132C389,-95 365,-58 303,-51l10,45C453,9 526,80 526,169z"
   id="glyph700" />
<glyph
   unicode="ŝ"
   horiz-adv-x="547"
   d="M268,683l86,-76l126,0l-130,152l-164,0l-130,-152l126,0M207,378C207,398 230,416 294,416C342,416 396,406 450,376l57,129C453,535 369,551 293,551C123,551 29,473 29,371C29,154 349,237 349,164C349,141 328,127 264,127C198,127 125,146 75,177l-57,-130C71,14 166,-9 258,-9C434,-9 526,69 526,169C526,384 207,303 207,378z"
   id="glyph702" />
<glyph
   unicode="ș"
   horiz-adv-x="547"
   d="M207,378C207,398 230,416 294,416C342,416 396,406 450,376l57,129C453,535 369,551 293,551C123,551 29,473 29,371C29,154 349,237 349,164C349,141 328,127 264,127C198,127 125,146 75,177l-57,-130C71,14 166,-9 258,-9C434,-9 526,69 526,169C526,384 207,303 207,378M268,-62C219,-62 189,-89 189,-129C189,-158 202,-179 229,-189l-26,-79l86,0l37,67C344,-169 347,-147 347,-129C347,-89 317,-62 268,-62z"
   id="glyph704" />
<glyph
   unicode="″"
   horiz-adv-x="462"
   d="M53,408l135,0l13,292l-160,0M273,408l135,0l13,292l-160,0z"
   id="glyph706" />
<glyph
   unicode="§"
   horiz-adv-x="535"
   d="M509,303C509,516 211,450 211,529C211,557 234,576 300,576C356,576 411,565 465,534l53,129C466,695 368,709 310,709C131,709 44,629 44,522C44,475 59,442 83,419C44,387 24,342 24,290C24,85 323,160 323,71C323,43 299,24 250,24C194,24 121,45 72,77l-53,-129C70,-86 165,-109 250,-109C406,-109 490,-29 490,77C490,125 474,158 450,182C489,214 509,257 509,303M188,304C188,327 202,346 224,359C288,345 345,336 345,297C345,274 331,254 309,242C245,256 188,265 188,304z"
   id="glyph708" />
<glyph
   unicode=";"
   horiz-adv-x="283"
   d="M141,326C206,326 255,373 255,439C255,507 206,551 141,551C77,551 27,507 27,439C27,373 77,326 141,326M142,216C76,216 28,172 28,104C28,57 51,23 87,6l-47,-163l119,0l63,146C251,54 255,76 255,104C255,172 207,216 142,216z"
   id="glyph710" />
<glyph
   unicode="7"
   horiz-adv-x="632"
   d="M23,700l0,-265l169,0l0,108l184,0l-236,-543l216,0l247,576l0,124z"
   id="glyph712" />
<glyph
   unicode="⅞"
   horiz-adv-x="1050"
   d="M93,285l147,0l170,336l0,79l-386,0l0,-161l114,0l0,62l115,0M693,700l-478,-700l143,0l478,700M971,218C1003,237 1021,265 1021,302C1021,375 947,424 835,424C724,424 649,375 649,302C649,265 667,237 699,218C659,197 636,165 636,122C636,43 716,-9 835,-9C954,-9 1034,43 1034,122C1034,165 1011,197 971,218M835,337C871,337 892,321 892,297C892,273 870,256 835,256C800,256 778,273 778,297C778,321 799,337 835,337M835,78C793,78 768,98 768,126C768,155 794,174 835,174C876,174 902,155 902,126C902,98 876,78 835,78z"
   id="glyph714" />
<glyph
   unicode="6"
   horiz-adv-x="649"
   d="M392,446C326,446 273,428 234,394C244,501 311,557 411,557C456,557 500,549 540,521l72,142C561,696 485,714 406,714C185,714 34,575 34,331C34,104 162,-14 358,-14C511,-14 633,79 633,225C633,359 524,446 392,446M346,127C286,127 248,163 248,215C248,268 288,304 345,304C402,304 441,270 441,216C441,161 402,127 346,127z"
   id="glyph716" />
<glyph
   unicode="/"
   horiz-adv-x="415"
   d="M-37,-100l169,0l330,942l-169,0z"
   id="glyph718" />
<glyph
   unicode=" "
   horiz-adv-x="291"
   id="glyph720" />
<glyph
   unicode="£"
   horiz-adv-x="681"
   d="M323,293l226,0l0,114l-226,0l0,10C323,507 379,550 476,550C522,550 571,541 612,517l58,152C618,698 548,714 466,714C249,714 125,603 125,413l0,-6l-95,0l0,-114l95,0l0,-140l-95,0l0,-153l618,0l0,153l-325,0z"
   id="glyph722" />
<glyph
   unicode="∑"
   horiz-adv-x="679"
   d="M298,-37l216,228l0,125l-200,227l339,0l0,157l-603,0l0,-124l281,-323l-296,-323l0,-124l627,0l0,157z"
   id="glyph724" />
<glyph
   unicode="t"
   horiz-adv-x="447"
   d="M388,155C372,144 351,138 330,138C296,138 273,160 273,200l0,180l124,0l0,142l-124,0l0,141l-190,0l0,-141l-79,0l0,-142l79,0l0,-182C83,59 164,-9 303,-9C353,-9 402,1 435,22z"
   id="glyph726" />
<glyph
   unicode="ŧ"
   horiz-adv-x="457"
   d="M393,155C377,144 356,138 335,138C301,138 278,160 278,200l0,18l111,0l0,100l-111,0l0,62l124,0l0,142l-124,0l0,141l-190,0l0,-141l-79,0l0,-142l79,0l0,-62l-66,0l0,-100l66,0l0,-20C88,59 169,-9 308,-9C358,-9 407,1 440,22z"
   id="glyph728" />
<glyph
   unicode="ť"
   horiz-adv-x="447"
   d="M331,769l0,-197l111,0l18,197M330,138C296,138 273,160 273,200l0,180l124,0l0,142l-124,0l0,141l-190,0l0,-141l-79,0l0,-142l79,0l0,-182C83,59 164,-9 303,-9C353,-9 402,1 435,22l-47,133C372,144 351,138 330,138z"
   id="glyph730" />
<glyph
   unicode="þ"
   horiz-adv-x="695"
   d="M402,551C337,551 287,534 251,498l0,244l-190,0l0,-936l190,0l0,242C288,10 339,-9 402,-9C549,-9 668,99 668,271C668,443 549,551 402,551M362,142C298,142 248,189 248,271C248,353 298,400 362,400C426,400 476,353 476,271C476,189 426,142 362,142z"
   id="glyph732" />
<glyph
   unicode="3"
   horiz-adv-x="603"
   d="M393,420l145,156l0,124l-506,0l0,-153l276,0l-125,-135l0,-125l83,0C342,287 373,261 373,219C373,172 329,146 262,146C196,146 124,166 68,204l-72,-149C68,10 171,-14 268,-14C479,-14 573,100 573,219C573,319 511,395 393,420z"
   id="glyph734" />
<glyph
   unicode="⅜"
   horiz-adv-x="1050"
   d="M406,416C406,476 366,522 290,536l92,85l0,79l-348,0l0,-97l187,0l-78,-72l0,-79l65,0C254,452 272,438 272,416C272,391 248,377 200,377C153,377 99,391 59,415l-45,-94C56,293 130,276 202,276C344,276 406,345 406,416M693,700l-478,-700l143,0l478,700M971,218C1003,237 1021,265 1021,302C1021,375 947,424 835,424C724,424 649,375 649,302C649,265 667,237 699,218C659,197 636,165 636,122C636,43 716,-9 835,-9C954,-9 1034,43 1034,122C1034,165 1011,197 971,218M835,337C871,337 892,321 892,297C892,273 870,256 835,256C800,256 778,273 778,297C778,321 799,337 835,337M835,78C793,78 768,98 768,126C768,155 794,174 835,174C876,174 902,155 902,126C902,98 876,78 835,78z"
   id="glyph736" />
<glyph
   unicode="¾"
   horiz-adv-x="1050"
   d="M406,416C406,476 366,522 290,536l92,85l0,79l-348,0l0,-97l187,0l-78,-72l0,-79l65,0C254,452 272,438 272,416C272,391 248,377 200,377C153,377 99,391 59,415l-45,-94C56,293 130,276 202,276C344,276 406,345 406,416M693,700l-478,-700l143,0l478,700M1035,175l-58,0l0,63l-115,0l0,-63l-83,0l171,240l-142,0l-182,-257l0,-82l222,0l0,-76l129,0l0,76l58,0z"
   id="glyph738" />
<glyph
   unicode="˜"
   horiz-adv-x="600"
   d="M378,600C455,600 503,663 505,757l-93,0C410,726 393,707 366,707C330,707 293,768 222,768C145,768 97,706 95,609l93,0C190,642 207,662 234,662C270,662 307,600 378,600z"
   id="glyph740" />
<glyph
   unicode="̃"
   horiz-adv-x="0"
   d="M-222,600C-145,600 -97,663 -95,757l-93,0C-190,726 -207,707 -234,707C-270,707 -307,768 -378,768C-455,768 -503,706 -505,609l93,0C-410,642 -393,662 -366,662C-330,662 -293,600 -222,600z"
   id="glyph742" />
<glyph
   unicode="™"
   horiz-adv-x="1056"
   d="M4,601l135,0l0,-316l136,0l0,316l136,0l0,99l-407,0M986,285l-2,415l-110,0l-150,-233l-155,233l-111,0l0,-415l124,0l0,202l110,-163l60,0l108,168l2,-207z"
   id="glyph744" />
<glyph
   unicode="▼"
   horiz-adv-x="600"
   d="M87,478l213,-426l213,426z"
   id="glyph746" />
<glyph
   unicode="▲"
   horiz-adv-x="600"
   d="M87,52l426,0l-213,426z"
   id="glyph748" />
<glyph
   unicode="2"
   horiz-adv-x="599"
   d="M305,157l132,122C537,371 556,433 556,501C556,631 445,714 284,714C146,714 47,656 -6,568l147,-82C169,531 215,554 266,554C326,554 356,527 356,482C356,453 348,421 292,369l-262,-245l0,-124l545,0l0,157z"
   id="glyph750" />
<glyph
   unicode="u"
   horiz-adv-x="692"
   d="M441,542l0,-261C441,190 395,153 339,153C282,153 249,186 249,270l0,272l-190,0l0,-303C59,67 156,-9 289,-9C351,-9 409,13 450,58l0,-58l181,0l0,542z"
   id="glyph752" />
<glyph
   unicode="ú"
   horiz-adv-x="692"
   d="M571,759l-190,0l-134,-152l136,0M441,542l0,-261C441,190 395,153 339,153C282,153 249,186 249,270l0,272l-190,0l0,-303C59,67 156,-9 289,-9C351,-9 409,13 450,58l0,-58l181,0l0,542z"
   id="glyph754" />
<glyph
   unicode="ŭ"
   horiz-adv-x="692"
   d="M345,598C457,598 537,660 541,759l-116,0C423,719 389,693 345,693C301,693 267,719 265,759l-116,0C153,660 233,598 345,598M441,542l0,-261C441,190 395,153 339,153C282,153 249,186 249,270l0,272l-190,0l0,-303C59,67 156,-9 289,-9C351,-9 409,13 450,58l0,-58l181,0l0,542z"
   id="glyph756" />
<glyph
   unicode="û"
   horiz-adv-x="692"
   d="M345,683l86,-76l126,0l-130,152l-164,0l-130,-152l126,0M441,542l0,-261C441,190 395,153 339,153C282,153 249,186 249,270l0,272l-190,0l0,-303C59,67 156,-9 289,-9C351,-9 409,13 450,58l0,-58l181,0l0,542z"
   id="glyph758" />
<glyph
   unicode="ü"
   horiz-adv-x="692"
   d="M239,606C284,606 318,637 318,684C318,731 284,763 239,763C194,763 160,731 160,684C160,637 194,606 239,606M451,606C496,606 530,637 530,684C530,731 496,763 451,763C406,763 372,731 372,684C372,637 406,606 451,606M441,542l0,-261C441,190 395,153 339,153C282,153 249,186 249,270l0,272l-190,0l0,-303C59,67 156,-9 289,-9C351,-9 409,13 450,58l0,-58l181,0l0,542z"
   id="glyph760" />
<glyph
   unicode="ù"
   horiz-adv-x="692"
   d="M443,607l-134,152l-190,0l188,-152M441,542l0,-261C441,190 395,153 339,153C282,153 249,186 249,270l0,272l-190,0l0,-303C59,67 156,-9 289,-9C351,-9 409,13 450,58l0,-58l181,0l0,542z"
   id="glyph762" />
<glyph
   unicode="ư"
   horiz-adv-x="709"
   d="M725,597C725,639 712,675 690,702l-110,-39C592,649 600,627 600,605C600,568 575,542 543,542l-102,0l0,-261C441,190 395,153 339,153C282,153 249,186 249,270l0,272l-190,0l0,-303C59,67 156,-9 289,-9C351,-9 409,13 450,58l0,-58l181,0l0,440C691,466 725,520 725,597z"
   id="glyph764" />
<glyph
   unicode="ű"
   horiz-adv-x="692"
   d="M403,759l-170,0l-63,-152l132,0M520,607l100,152l-170,0l-62,-152M441,542l0,-261C441,190 395,153 339,153C282,153 249,186 249,270l0,272l-190,0l0,-303C59,67 156,-9 289,-9C351,-9 409,13 450,58l0,-58l181,0l0,542z"
   id="glyph766" />
<glyph
   unicode="ū"
   horiz-adv-x="692"
   d="M542,734l-394,0l0,-102l394,0M441,542l0,-261C441,190 395,153 339,153C282,153 249,186 249,270l0,272l-190,0l0,-303C59,67 156,-9 289,-9C351,-9 409,13 450,58l0,-58l181,0l0,542z"
   id="glyph768" />
<glyph
   unicode="_"
   horiz-adv-x="500"
   d="M0,-104l500,0l0,104l-500,0z"
   id="glyph770" />
<glyph
   unicode=" "
   horiz-adv-x="291"
   id="glyph772" />
<glyph
   unicode="­"
   horiz-adv-x="388"
   d="M48,212l292,0l0,146l-292,0z"
   id="glyph774" />
<glyph
   unicode="²"
   horiz-adv-x="430"
   d="M225,426l76,65C366,548 381,582 381,622C381,699 311,751 202,751C106,751 43,714 13,661l97,-52C126,635 154,650 190,650C230,650 247,633 247,612C247,596 239,579 204,549l-166,-143l0,-79l357,0l0,99z"
   id="glyph776" />
<glyph
   unicode="³"
   horiz-adv-x="430"
   d="M290,578l92,85l0,79l-348,0l0,-97l187,0l-78,-72l0,-79l65,0C254,494 272,480 272,458C272,433 248,419 200,419C153,419 99,433 59,457l-45,-94C56,335 130,318 202,318C344,318 406,387 406,458C406,518 366,564 290,578z"
   id="glyph778" />
<glyph
   unicode="µ"
   horiz-adv-x="695"
   d="M444,542l0,-261C444,190 398,153 342,153C285,153 251,186 251,270l0,272l-190,0l0,-736l190,0l0,209C275,-1 304,-9 338,-9C385,-9 434,10 466,60l0,-60l168,0l0,542z"
   id="glyph780" />
<glyph
   unicode="¹"
   horiz-adv-x="430"
   d="M300,424l0,318l-222,0l0,-97l86,0l0,-221l-95,0l0,-97l313,0l0,97z"
   id="glyph782" />
<glyph
   unicode="Ţ"
   horiz-adv-x="635"
   d="M417,0l0,543l214,0l0,157l-627,0l0,-157l215,0l0,-543l47,0l-24,-101l37,0C311,-101 324,-111 324,-126C324,-142 310,-154 274,-154C250,-154 229,-148 212,-140l-26,-75C208,-227 247,-236 281,-236C376,-236 439,-196 439,-132C439,-95 415,-58 353,-51l12,51z"
   id="glyph784" />
<glyph
   unicode="ţ"
   horiz-adv-x="447"
   d="M303,-51l10,42C359,-8 404,2 435,22l-47,133C372,144 351,138 330,138C296,138 273,160 273,200l0,180l124,0l0,142l-124,0l0,141l-190,0l0,-141l-79,0l0,-142l79,0l0,-182C83,91 131,26 216,2l-24,-103l37,0C261,-101 274,-111 274,-126C274,-142 260,-154 224,-154C200,-154 179,-148 162,-140l-26,-75C158,-227 197,-236 231,-236C326,-236 389,-196 389,-132C389,-95 365,-58 303,-51z"
   id="glyph786" />
<glyph
   unicode="Ə"
   horiz-adv-x="818"
   d="M394,714C269,714 150,661 84,592l117,-124C248,521 328,550 392,550C491,550 566,487 581,394l-547,0l0,-36C34,136 189,-14 409,-14C625,-14 783,136 783,350C783,563 622,714 394,714M409,136C314,136 254,189 238,275l342,0C565,189 504,136 409,136z"
   id="glyph788" />
<glyph
   unicode="Ʒ"
   horiz-adv-x="646"
   d="M424,420l154,156l0,124l-526,0l0,-153l295,0l-133,-135l0,-125l84,0C380,287 416,261 416,219C416,172 368,145 293,145C223,145 145,166 86,203l-65,-148C91,10 199,-14 300,-14C520,-14 616,99 616,220C616,320 551,397 424,420z"
   id="glyph790" />
<glyph
   unicode="Ǆ"
   horiz-adv-x="1445"
   d="M1199,757l130,152l-126,0l-86,-76l-86,76l-126,0l130,-152M401,700l-331,0l0,-700l331,0C633,0 792,135 792,350C792,565 633,700 401,700M1062,157l353,419l0,124l-603,0l0,-157l344,0l-353,-419l0,-124l627,0l0,157M393,158l-125,0l0,384l125,0C512,542 592,471 592,350C592,229 512,158 393,158z"
   id="glyph792" />
<glyph
   unicode="ǅ"
   horiz-adv-x="1382"
   d="M1190,607l130,152l-126,0l-86,-76l-86,76l-126,0l130,-152M401,700l-331,0l0,-700l331,0C633,0 792,135 792,350C792,565 633,700 401,700M393,158l-125,0l0,384l125,0C512,542 592,471 592,350C592,229 512,158 393,158M1098,142l251,289l0,111l-483,0l0,-141l244,0l-251,-289l0,-112l500,0l0,142z"
   id="glyph794" />
<glyph
   unicode="ǆ"
   horiz-adv-x="1245"
   d="M1051,607l130,152l-126,0l-86,-76l-86,76l-126,0l130,-152M447,495C411,533 360,551 297,551C149,551 30,444 30,272C30,99 149,-9 297,-9C367,-9 420,11 456,54l0,-54l181,0l0,742l-190,0M959,142l251,289l0,111l-483,0l0,-141l244,0l-251,-289l0,-112l500,0l0,142M337,142C272,142 223,189 223,272C223,354 272,400 337,400C401,400 450,354 450,272C450,189 401,142 337,142z"
   id="glyph796" />
<glyph
   unicode="Ǉ"
   horiz-adv-x="1167"
   d="M665,700l0,-153l242,0l0,-301C907,179 876,144 819,144C774,144 735,169 698,217l-96,-114l0,54l-334,0l0,543l-198,0l0,-700l532,0l0,75C656,17 738,-14 833,-14C1009,-14 1103,76 1103,258l0,442z"
   id="glyph798" />
<glyph
   unicode="ǈ"
   horiz-adv-x="930"
   d="M774,602C844,602 890,646 890,706C890,763 844,804 774,804C704,804 658,760 658,703C658,646 704,602 774,602M70,0l532,0l0,157l-334,0l0,543l-198,0M648,-203C788,-203 869,-118 869,14l0,528l-190,0l0,-527C679,-34 656,-56 623,-56C601,-56 580,-50 564,-40l-48,-135C549,-194 598,-203 648,-203z"
   id="glyph800" />
<glyph
   unicode="ǉ"
   horiz-adv-x="633"
   d="M477,602C547,602 593,646 593,706C593,763 547,804 477,804C407,804 361,760 361,703C361,646 407,602 477,602M61,0l190,0l0,742l-190,0M351,-203C491,-203 572,-118 572,14l0,528l-190,0l0,-527C382,-34 359,-56 326,-56C304,-56 283,-50 267,-40l-48,-135C252,-194 301,-203 351,-203z"
   id="glyph802" />
<glyph
   unicode="Ǌ"
   horiz-adv-x="1363"
   d="M542,327l-309,373l-163,0l0,-700l194,0l0,373l309,-373l163,0l0,700l-194,0M861,700l0,-153l242,0l0,-301C1103,179 1072,144 1015,144C970,144 931,169 894,217l-108,-128C840,22 927,-14 1029,-14C1205,-14 1299,76 1299,258l0,442z"
   id="glyph804" />
<glyph
   unicode="ǋ"
   horiz-adv-x="1126"
   d="M970,602C1040,602 1086,646 1086,706C1086,763 1040,804 970,804C900,804 854,760 854,703C854,646 900,602 970,602M736,0l0,700l-194,0l0,-373l-309,373l-163,0l0,-700l194,0l0,373l309,-373M875,15C875,-34 852,-56 819,-56C797,-56 776,-50 760,-40l-48,-135C745,-194 794,-203 844,-203C984,-203 1065,-118 1065,14l0,528l-190,0z"
   id="glyph806" />
<glyph
   unicode="ǌ"
   horiz-adv-x="1016"
   d="M860,602C930,602 976,646 976,706C976,763 930,804 860,804C790,804 744,760 744,703C744,646 790,602 860,602M638,0l0,310C638,478 541,551 414,551C346,551 285,528 242,483l0,59l-181,0l0,-542l190,0l0,262C251,352 298,390 359,390C414,390 448,357 448,279l0,-279M765,15C765,-34 742,-56 709,-56C687,-56 666,-50 650,-40l-48,-135C635,-194 684,-203 734,-203C874,-203 955,-118 955,14l0,528l-190,0z"
   id="glyph808" />
<glyph
   unicode="Ǎ"
   horiz-adv-x="786"
   d="M475,757l130,152l-126,0l-86,-76l-86,76l-126,0l130,-152M594,0l206,0l-310,700l-195,0l-309,-700l202,0l55,136l296,0M301,282l90,224l90,-224z"
   id="glyph810" />
<glyph
   unicode="ǎ"
   horiz-adv-x="628"
   d="M395,607l130,152l-126,0l-86,-76l-86,76l-126,0l130,-152M292,551C207,551 115,529 53,488l64,-129C154,388 212,406 264,406C339,406 376,375 379,320l-108,0C103,320 30,258 30,158C30,64 102,-9 232,-9C311,-9 365,18 392,70l0,-70l177,0l0,301C569,473 468,551 292,551M285,111C240,111 214,134 214,166C214,199 236,221 297,221l82,0l0,-47C364,131 327,111 285,111z"
   id="glyph812" />
<glyph
   unicode="Ǔ"
   horiz-adv-x="786"
   d="M477,757l130,152l-126,0l-86,-76l-86,76l-126,0l130,-152M527,700l0,-382C527,198 477,150 395,150C312,150 262,198 262,318l0,382l-198,0l0,-388C64,103 186,-14 393,-14C600,-14 722,103 722,312l0,388z"
   id="glyph814" />
<glyph
   unicode="ǔ"
   horiz-adv-x="692"
   d="M427,607l130,152l-126,0l-86,-76l-86,76l-126,0l130,-152M441,542l0,-261C441,190 395,153 339,153C282,153 249,186 249,270l0,272l-190,0l0,-303C59,67 156,-9 289,-9C351,-9 409,13 450,58l0,-58l181,0l0,542z"
   id="glyph816" />
<glyph
   unicode="Ǥ"
   horiz-adv-x="814"
   d="M796,321l-82,0l0,44l-175,0l0,-44l-148,0l0,-120l148,0l0,-28C504,157 469,150 432,150C314,150 234,232 234,350C234,471 314,550 434,550C501,550 556,525 604,472l126,114C661,669 555,714 424,714C197,714 34,563 34,350C34,137 197,-14 420,-14C522,-14 633,17 714,75l0,126l82,0z"
   id="glyph818" />
<glyph
   unicode="ǥ"
   horiz-adv-x="718"
   d="M707,54l-65,0C643,68 644,83 644,99l0,443l-181,0l0,-66C423,526 361,550 285,550C131,550 27,452 27,315C27,177 131,78 286,78C357,78 415,99 455,142l-1,-11l0,-64l0,-14l-186,0l0,-78l157,0C402,-51 364,-64 311,-64C242,-64 169,-41 126,-6l-69,-126C121,-177 220,-203 324,-203C485,-203 588,-143 626,-24l81,0M338,211C266,211 219,251 219,315C219,378 266,418 338,418C409,418 456,378 456,315C456,251 409,211 338,211z"
   id="glyph820" />
<glyph
   unicode="Ǩ"
   horiz-adv-x="752"
   d="M464,757l130,152l-126,0l-86,-76l-86,76l-126,0l130,-152M540,0l230,0l-301,390l286,310l-218,0l-271,-291l0,291l-196,0l0,-700l196,0l0,175l74,79z"
   id="glyph822" />
<glyph
   unicode="ǩ"
   horiz-adv-x="686"
   d="M238,807l130,152l-126,0l-86,-76l-86,76l-126,0l130,-152M459,0l230,0l-244,310l225,232l-225,0l-194,-189l0,389l-190,0l0,-742l190,0l0,133l56,57z"
   id="glyph824" />
<glyph
   unicode="Ǫ"
   horiz-adv-x="846"
   d="M553,5C700,51 812,176 812,350C812,560 647,714 423,714C199,714 34,560 34,350C34,161 168,17 359,-10C322,-41 303,-78 303,-119C303,-189 357,-236 451,-236C491,-236 533,-226 557,-213l-24,82C517,-139 495,-146 473,-146C437,-146 418,-128 418,-102C418,-64 455,-26 553,5M234,350C234,471 317,550 423,550C529,550 612,471 612,350C612,229 529,150 423,150C317,150 234,229 234,350z"
   id="glyph826" />
<glyph
   unicode="ǫ"
   horiz-adv-x="666"
   d="M457,12C568,56 639,150 639,272C639,435 512,551 333,551C156,551 27,435 27,272C27,125 131,16 280,-5C238,-36 216,-75 216,-119C216,-189 271,-236 364,-236C404,-236 447,-226 471,-213l-25,82C431,-139 408,-146 387,-146C350,-146 331,-126 331,-101C331,-66 355,-28 457,12M219,272C219,354 269,400 333,400C398,400 447,354 447,272C447,189 398,142 333,142C269,142 219,189 219,272z"
   id="glyph828" />
<glyph
   unicode="Ǯ"
   horiz-adv-x="646"
   d="M395,757l130,152l-126,0l-86,-76l-86,76l-126,0l130,-152M424,420l154,156l0,124l-526,0l0,-153l295,0l-133,-135l0,-125l84,0C380,287 416,261 416,219C416,172 368,145 293,145C223,145 145,166 86,203l-65,-148C91,10 199,-14 300,-14C520,-14 616,99 616,220C616,320 551,397 424,420z"
   id="glyph830" />
<glyph
   unicode="ǯ"
   horiz-adv-x="569"
   d="M340,607l130,152l-126,0l-86,-76l-86,76l-126,0l130,-152M368,248l146,170l0,124l-501,0l0,-153l279,0l-128,-150l0,-124l83,0C323,115 354,85 354,38C354,-14 310,-43 242,-43C176,-43 104,-22 48,19l-66,-149C51,-177 152,-203 249,-203C457,-203 550,-87 550,38C550,144 487,224 368,248z"
   id="glyph832" />
<glyph
   unicode="Ȁ"
   horiz-adv-x="786"
   d="M350,757l-62,152l-170,0l100,-152M568,757l-63,152l-170,0l101,-152M594,0l206,0l-310,700l-195,0l-309,-700l202,0l55,136l296,0M301,282l90,224l90,-224z"
   id="glyph834" />
<glyph
   unicode="ȁ"
   horiz-adv-x="628"
   d="M270,607l-62,152l-170,0l100,-152M488,607l-63,152l-170,0l101,-152M292,551C207,551 115,529 53,488l64,-129C154,388 212,406 264,406C339,406 376,375 379,320l-108,0C103,320 30,258 30,158C30,64 102,-9 232,-9C311,-9 365,18 392,70l0,-70l177,0l0,301C569,473 468,551 292,551M285,111C240,111 214,134 214,166C214,199 236,221 297,221l82,0l0,-47C364,131 327,111 285,111z"
   id="glyph836" />
<glyph
   unicode="Ȃ"
   horiz-adv-x="786"
   d="M393,823C437,823 471,797 473,757l116,0C585,856 505,918 393,918C281,918 201,856 197,757l116,0C315,797 349,823 393,823M594,0l206,0l-310,700l-195,0l-309,-700l202,0l55,136l296,0M301,282l90,224l90,-224z"
   id="glyph838" />
<glyph
   unicode="ȃ"
   horiz-adv-x="628"
   d="M313,673C357,673 391,647 393,607l116,0C505,706 425,768 313,768C201,768 121,706 117,607l116,0C235,647 269,673 313,673M292,551C207,551 115,529 53,488l64,-129C154,388 212,406 264,406C339,406 376,375 379,320l-108,0C103,320 30,258 30,158C30,64 102,-9 232,-9C311,-9 365,18 392,70l0,-70l177,0l0,301C569,473 468,551 292,551M285,111C240,111 214,134 214,166C214,199 236,221 297,221l82,0l0,-47C364,131 327,111 285,111z"
   id="glyph840" />
<glyph
   unicode="Ȅ"
   horiz-adv-x="672"
   d="M302,757l-62,152l-170,0l100,-152M520,757l-63,152l-170,0l101,-152M266,153l0,128l311,0l0,148l-311,0l0,118l353,0l0,153l-549,0l0,-700l562,0l0,153z"
   id="glyph842" />
<glyph
   unicode="ȅ"
   horiz-adv-x="642"
   d="M278,607l-62,152l-170,0l100,-152M496,607l-63,152l-170,0l101,-152M615,270C615,449 485,551 325,551C154,551 27,435 27,272C27,110 152,-9 345,-9C448,-9 524,21 576,79l-100,104C439,151 404,136 351,136C281,136 234,168 218,223l394,0C613,238 615,256 615,270M326,416C385,416 427,380 437,323l-222,0C226,380 267,416 326,416z"
   id="glyph844" />
<glyph
   unicode="Ȇ"
   horiz-adv-x="672"
   d="M345,823C389,823 423,797 425,757l116,0C537,856 457,918 345,918C233,918 153,856 149,757l116,0C267,797 301,823 345,823M266,153l0,128l311,0l0,148l-311,0l0,118l353,0l0,153l-549,0l0,-700l562,0l0,153z"
   id="glyph846" />
<glyph
   unicode="ȇ"
   horiz-adv-x="642"
   d="M321,673C365,673 399,647 401,607l116,0C513,706 433,768 321,768C209,768 129,706 125,607l116,0C243,647 277,673 321,673M615,270C615,449 485,551 325,551C154,551 27,435 27,272C27,110 152,-9 345,-9C448,-9 524,21 576,79l-100,104C439,151 404,136 351,136C281,136 234,168 218,223l394,0C613,238 615,256 615,270M326,416C385,416 427,380 437,323l-222,0C226,380 267,416 326,416z"
   id="glyph848" />
<glyph
   unicode="Ȉ"
   horiz-adv-x="339"
   d="M-6,757l132,0l-62,152l-170,0M212,757l132,0l-63,152l-170,0M70,0l198,0l0,700l-198,0z"
   id="glyph850" />
<glyph
   unicode="ȉ"
   horiz-adv-x="313"
   d="M-19,607l132,0l-62,152l-170,0M199,607l132,0l-63,152l-170,0M61,0l190,0l0,542l-190,0z"
   id="glyph852" />
<glyph
   unicode="Ȋ"
   horiz-adv-x="339"
   d="M-27,757l116,0C91,797 125,823 169,823C213,823 247,797 249,757l116,0C361,856 281,918 169,918C57,918 -23,856 -27,757M70,0l198,0l0,700l-198,0z"
   id="glyph854" />
<glyph
   unicode="ȋ"
   horiz-adv-x="313"
   d="M-15,607l111,0C96,647 118,675 156,675C194,675 216,647 216,607l111,0C326,706 254,768 156,768C58,768 -14,706 -15,607M61,0l190,0l0,542l-190,0z"
   id="glyph856" />
<glyph
   unicode="Ȍ"
   horiz-adv-x="846"
   d="M248,757l132,0l-62,152l-170,0M466,757l132,0l-63,152l-170,0M423,-14C647,-14 812,140 812,350C812,560 647,714 423,714C199,714 34,560 34,350C34,140 199,-14 423,-14M423,150C317,150 234,229 234,350C234,471 317,550 423,550C529,550 612,471 612,350C612,229 529,150 423,150z"
   id="glyph858" />
<glyph
   unicode="ȍ"
   horiz-adv-x="666"
   d="M156,607l132,0l-62,152l-170,0M374,607l132,0l-63,152l-170,0M333,-9C512,-9 639,108 639,272C639,435 512,551 333,551C156,551 27,435 27,272C27,108 156,-9 333,-9M333,142C269,142 219,189 219,272C219,354 269,400 333,400C398,400 447,354 447,272C447,189 398,142 333,142z"
   id="glyph860" />
<glyph
   unicode="Ȏ"
   horiz-adv-x="846"
   d="M227,757l116,0C345,797 379,823 423,823C467,823 501,797 503,757l116,0C615,856 535,918 423,918C311,918 231,856 227,757M423,-14C647,-14 812,140 812,350C812,560 647,714 423,714C199,714 34,560 34,350C34,140 199,-14 423,-14M423,150C317,150 234,229 234,350C234,471 317,550 423,550C529,550 612,471 612,350C612,229 529,150 423,150z"
   id="glyph862" />
<glyph
   unicode="ȏ"
   horiz-adv-x="666"
   d="M135,607l116,0C253,647 287,673 331,673C375,673 409,647 411,607l116,0C523,706 443,768 331,768C219,768 139,706 135,607M333,-9C512,-9 639,108 639,272C639,435 512,551 333,551C156,551 27,435 27,272C27,108 156,-9 333,-9M333,142C269,142 219,189 219,272C219,354 269,400 333,400C398,400 447,354 447,272C447,189 398,142 333,142z"
   id="glyph864" />
<glyph
   unicode="Ȑ"
   horiz-adv-x="740"
   d="M334,757l-62,152l-170,0l100,-152M552,757l-63,152l-170,0l101,-152M503,0l212,0l-151,220C651,262 701,338 701,441C701,601 581,700 390,700l-320,0l0,-700l198,0l0,186l108,0M501,441C501,377 460,339 378,339l-110,0l0,205l110,0C460,544 501,506 501,441z"
   id="glyph866" />
<glyph
   unicode="ȑ"
   horiz-adv-x="443"
   d="M199,607l-62,152l-170,0l100,-152M417,607l-63,152l-170,0l101,-152M242,477l0,65l-181,0l0,-542l190,0l0,249C251,344 304,383 381,383C395,383 407,382 424,380l0,171C344,551 281,526 242,477z"
   id="glyph868" />
<glyph
   unicode="Ȓ"
   horiz-adv-x="740"
   d="M377,823C421,823 455,797 457,757l116,0C569,856 489,918 377,918C265,918 185,856 181,757l116,0C299,797 333,823 377,823M503,0l212,0l-151,220C651,262 701,338 701,441C701,601 581,700 390,700l-320,0l0,-700l198,0l0,186l108,0M501,441C501,377 460,339 378,339l-110,0l0,205l110,0C460,544 501,506 501,441z"
   id="glyph870" />
<glyph
   unicode="ȓ"
   horiz-adv-x="443"
   d="M242,673C286,673 320,647 322,607l116,0C434,706 354,768 242,768C130,768 50,706 46,607l116,0C164,647 198,673 242,673M242,477l0,65l-181,0l0,-542l190,0l0,249C251,344 304,383 381,383C395,383 407,382 424,380l0,171C344,551 281,526 242,477z"
   id="glyph872" />
<glyph
   unicode="Ȕ"
   horiz-adv-x="786"
   d="M220,757l132,0l-62,152l-170,0M438,757l132,0l-63,152l-170,0M393,-14C600,-14 722,103 722,312l0,388l-195,0l0,-382C527,198 477,150 395,150C312,150 262,198 262,318l0,382l-198,0l0,-388C64,103 186,-14 393,-14z"
   id="glyph874" />
<glyph
   unicode="ȕ"
   horiz-adv-x="692"
   d="M302,607l-62,152l-170,0l100,-152M520,607l-63,152l-170,0l101,-152M441,542l0,-261C441,190 395,153 339,153C282,153 249,186 249,270l0,272l-190,0l0,-303C59,67 156,-9 289,-9C351,-9 409,13 450,58l0,-58l181,0l0,542z"
   id="glyph876" />
<glyph
   unicode="Ȗ"
   horiz-adv-x="786"
   d="M199,757l116,0C317,797 351,823 395,823C439,823 473,797 475,757l116,0C587,856 507,918 395,918C283,918 203,856 199,757M393,-14C600,-14 722,103 722,312l0,388l-195,0l0,-382C527,198 477,150 395,150C312,150 262,198 262,318l0,382l-198,0l0,-388C64,103 186,-14 393,-14z"
   id="glyph878" />
<glyph
   unicode="ȗ"
   horiz-adv-x="692"
   d="M345,673C389,673 423,647 425,607l116,0C537,706 457,768 345,768C233,768 153,706 149,607l116,0C267,647 301,673 345,673M441,542l0,-261C441,190 395,153 339,153C282,153 249,186 249,270l0,272l-190,0l0,-303C59,67 156,-9 289,-9C351,-9 409,13 450,58l0,-58l181,0l0,542z"
   id="glyph880" />
<glyph
   unicode="Ț"
   horiz-adv-x="635"
   d="M4,700l0,-157l215,0l0,-543l198,0l0,543l214,0l0,157M318,-62C269,-62 239,-89 239,-129C239,-158 252,-179 279,-189l-26,-79l86,0l37,67C394,-169 397,-147 397,-129C397,-89 367,-62 318,-62z"
   id="glyph882" />
<glyph
   unicode="ț"
   horiz-adv-x="447"
   d="M435,22l-47,133C372,144 351,138 330,138C296,138 273,160 273,200l0,180l124,0l0,142l-124,0l0,141l-190,0l0,-141l-79,0l0,-142l79,0l0,-182C83,59 164,-9 303,-9C353,-9 402,1 435,22M268,-62C219,-62 189,-89 189,-129C189,-158 202,-179 229,-189l-26,-79l86,0l37,67C344,-169 347,-147 347,-129C347,-89 317,-62 268,-62z"
   id="glyph884" />
<glyph
   unicode="Ȟ"
   horiz-adv-x="806"
   d="M485,757l130,152l-126,0l-86,-76l-86,76l-126,0l130,-152M538,700l0,-263l-270,0l0,263l-198,0l0,-700l198,0l0,273l270,0l0,-273l198,0l0,700z"
   id="glyph886" />
<glyph
   unicode="ȟ"
   horiz-adv-x="696"
   d="M238,807l130,152l-126,0l-86,-76l-86,76l-126,0l130,-152M414,551C350,551 293,531 251,492l0,250l-190,0l0,-742l190,0l0,262C251,352 298,390 359,390C414,390 448,357 448,279l0,-279l190,0l0,310C638,478 541,551 414,551z"
   id="glyph888" />
<glyph
   unicode="Ȫ"
   horiz-adv-x="846"
   d="M226,941l394,0l0,98l-394,0M321,756C364,756 397,786 397,830C397,874 364,905 321,905C279,905 246,874 246,830C246,786 279,756 321,756M525,756C567,756 600,786 600,830C600,874 567,905 525,905C483,905 450,874 450,830C450,786 483,756 525,756M423,-14C647,-14 812,140 812,350C812,560 647,714 423,714C199,714 34,560 34,350C34,140 199,-14 423,-14M423,150C317,150 234,229 234,350C234,471 317,550 423,550C529,550 612,471 612,350C612,229 529,150 423,150z"
   id="glyph890" />
<glyph
   unicode="ȫ"
   horiz-adv-x="666"
   d="M134,791l394,0l0,98l-394,0M229,606C272,606 305,636 305,680C305,724 272,755 229,755C187,755 154,724 154,680C154,636 187,606 229,606M433,606C475,606 508,636 508,680C508,724 475,755 433,755C391,755 358,724 358,680C358,636 391,606 433,606M333,-9C512,-9 639,108 639,272C639,435 512,551 333,551C156,551 27,435 27,272C27,108 156,-9 333,-9M333,142C269,142 219,189 219,272C219,354 269,400 333,400C398,400 447,354 447,272C447,189 398,142 333,142z"
   id="glyph892" />
<glyph
   unicode="Ȭ"
   horiz-adv-x="846"
   d="M226,941l394,0l0,98l-394,0M498,751C578,751 623,803 624,887l-92,0C530,863 514,844 488,844C456,844 418,895 349,895C271,895 223,846 222,759l95,0C319,785 335,802 360,802C391,802 427,751 498,751M423,-14C647,-14 812,140 812,350C812,560 647,714 423,714C199,714 34,560 34,350C34,140 199,-14 423,-14M423,150C317,150 234,229 234,350C234,471 317,550 423,550C529,550 612,471 612,350C612,229 529,150 423,150z"
   id="glyph894" />
<glyph
   unicode="ȭ"
   horiz-adv-x="666"
   d="M134,791l394,0l0,98l-394,0M406,601C486,601 531,653 532,737l-92,0C438,713 422,694 396,694C364,694 326,745 257,745C179,745 131,696 130,609l95,0C227,635 243,652 268,652C299,652 335,601 406,601M333,-9C512,-9 639,108 639,272C639,435 512,551 333,551C156,551 27,435 27,272C27,108 156,-9 333,-9M333,142C269,142 219,189 219,272C219,354 269,400 333,400C398,400 447,354 447,272C447,189 398,142 333,142z"
   id="glyph896" />
<glyph
   unicode="Ȱ"
   horiz-adv-x="846"
   d="M226,949l394,0l0,98l-394,0M423,754C468,754 502,785 502,832C502,878 468,910 423,910C378,910 344,878 344,832C344,785 378,754 423,754M423,-14C647,-14 812,140 812,350C812,560 647,714 423,714C199,714 34,560 34,350C34,140 199,-14 423,-14M423,150C317,150 234,229 234,350C234,471 317,550 423,550C529,550 612,471 612,350C612,229 529,150 423,150z"
   id="glyph898" />
<glyph
   unicode="ȱ"
   horiz-adv-x="666"
   d="M134,799l394,0l0,98l-394,0M331,604C376,604 410,635 410,682C410,728 376,760 331,760C286,760 252,728 252,682C252,635 286,604 331,604M333,-9C512,-9 639,108 639,272C639,435 512,551 333,551C156,551 27,435 27,272C27,108 156,-9 333,-9M333,142C269,142 219,189 219,272C219,354 269,400 333,400C398,400 447,354 447,272C447,189 398,142 333,142z"
   id="glyph900" />
<glyph
   unicode="Ȳ"
   horiz-adv-x="693"
   d="M543,884l-394,0l0,-102l394,0M713,700l-192,0l-166,-278l-166,278l-209,0l267,-446l0,-254l198,0l0,251z"
   id="glyph902" />
<glyph
   unicode="ȳ"
   horiz-adv-x="620"
   d="M497,734l-394,0l0,-102l394,0M451,542l-134,-331l-133,331l-195,0l232,-549C205,-39 184,-53 147,-53C117,-53 85,-41 63,-21l-66,-133C33,-184 97,-203 154,-203C261,-203 341,-162 398,-22l234,564z"
   id="glyph904" />
<glyph
   unicode="ȷ"
   horiz-adv-x="320"
   d="M38,-203C178,-203 259,-118 259,14l0,528l-190,0l0,-527C69,-34 46,-56 13,-56C-9,-56 -30,-50 -46,-40l-48,-135C-61,-194 -12,-203 38,-203z"
   id="glyph906" />
<glyph
   unicode="ə"
   horiz-adv-x="642"
   d="M297,551C194,551 118,521 66,463l100,-104C203,391 238,406 291,406C361,406 408,374 424,319l-394,0C29,304 27,286 27,272C27,93 157,-9 317,-9C488,-9 615,107 615,270C615,432 490,551 297,551M316,126C257,126 215,162 205,219l222,0C416,162 375,126 316,126z"
   id="glyph908" />
<glyph
   unicode="ʒ"
   horiz-adv-x="569"
   d="M368,248l146,170l0,124l-501,0l0,-153l279,0l-128,-150l0,-124l83,0C323,115 354,85 354,38C354,-14 310,-43 242,-43C176,-43 104,-22 48,19l-66,-149C51,-177 152,-203 249,-203C457,-203 550,-87 550,38C550,144 487,224 368,248z"
   id="glyph910" />
<glyph
   unicode="ʹ"
   horiz-adv-x="242"
   d="M53,408l135,0l13,292l-160,0z"
   id="glyph912" />
<glyph
   unicode="ʺ"
   horiz-adv-x="462"
   d="M53,408l135,0l13,292l-160,0M273,408l135,0l13,292l-160,0z"
   id="glyph914" />
<glyph
   unicode="ʻ"
   horiz-adv-x="295"
   d="M201,778l47,163l-119,0l-64,-147C36,730 32,708 32,680C32,612 80,568 146,568C211,568 260,612 260,680C260,727 237,761 201,778z"
   id="glyph916" />
<glyph
   unicode="ʼ"
   horiz-adv-x="194"
   d="M35,437l98,0l26,263l-123,0z"
   id="glyph918" />
<glyph
   unicode="ʾ"
   horiz-adv-x="600"
   d="M300,591C375,591 432,647 432,718C432,789 375,846 300,846l0,-71C332,775 357,752 357,718C357,685 332,661 300,661z"
   id="glyph920" />
<glyph
   unicode="ʿ"
   horiz-adv-x="600"
   d="M300,591l0,70C268,661 243,685 243,718C243,752 268,775 300,775l0,71C224,846 167,789 167,718C167,647 224,591 300,591z"
   id="glyph922" />
<glyph
   unicode="ˈ"
   horiz-adv-x="194"
   d="M36,500l122,0l0,201l-122,0z"
   id="glyph924" />
<glyph
   unicode="ˉ"
   horiz-adv-x="600"
   d="M103,632l394,0l0,102l-394,0z"
   id="glyph926" />
<glyph
   unicode="ˊ"
   horiz-adv-x="600"
   d="M202,607l136,0l188,152l-190,0z"
   id="glyph928" />
<glyph
   unicode="ˋ"
   horiz-adv-x="600"
   d="M262,607l136,0l-134,152l-190,0z"
   id="glyph930" />
<glyph
   unicode="ˌ"
   horiz-adv-x="197"
   d="M36,-230l125,0l0,200l-125,0z"
   id="glyph932" />
<glyph
   unicode="̂"
   horiz-adv-x="0"
   d="M-88,607l-130,152l-164,0l-130,-152l126,0l86,76l86,-76z"
   id="glyph934" />
<glyph
   unicode="̄"
   horiz-adv-x="0"
   d="M-497,632l394,0l0,102l-394,0z"
   id="glyph936" />
<glyph
   unicode="̆"
   horiz-adv-x="0"
   d="M-300,598C-188,598 -108,660 -104,759l-116,0C-222,719 -256,693 -300,693C-344,693 -378,719 -380,759l-116,0C-492,660 -412,598 -300,598z"
   id="glyph938" />
<glyph
   unicode="̇"
   horiz-adv-x="0"
   d="M-300,605C-242,605 -201,646 -201,704C-201,761 -242,802 -300,802C-358,802 -399,761 -399,704C-399,646 -358,605 -300,605z"
   id="glyph940" />
<glyph
   unicode="̈"
   horiz-adv-x="0"
   d="M-406,606C-361,606 -327,637 -327,684C-327,731 -361,763 -406,763C-451,763 -485,731 -485,684C-485,637 -451,606 -406,606M-194,606C-149,606 -115,637 -115,684C-115,731 -149,763 -194,763C-239,763 -273,731 -273,684C-273,637 -239,606 -194,606z"
   id="glyph942" />
<glyph
   unicode="̊"
   horiz-adv-x="0"
   d="M-300,591C-226,591 -168,647 -168,718C-168,789 -226,846 -300,846C-375,846 -432,789 -432,718C-432,647 -375,591 -300,591M-300,661C-332,661 -357,685 -357,718C-357,752 -332,776 -300,776C-268,776 -243,752 -243,718C-243,685 -268,661 -300,661z"
   id="glyph944" />
<glyph
   unicode="̋"
   horiz-adv-x="0"
   d="M-475,607l132,0l101,152l-170,0M-257,607l132,0l100,152l-170,0z"
   id="glyph946" />
<glyph
   unicode="̌"
   horiz-adv-x="0"
   d="M-214,759l-86,-76l-86,76l-126,0l130,-152l164,0l130,152z"
   id="glyph948" />
<glyph
   unicode="̏"
   horiz-adv-x="0"
   d="M-475,607l132,0l-62,152l-170,0M-257,607l132,0l-63,152l-170,0z"
   id="glyph950" />
<glyph
   unicode="̑"
   horiz-adv-x="0"
   d="M-496,607l116,0C-378,647 -344,673 -300,673C-256,673 -222,647 -220,607l116,0C-108,706 -188,768 -300,768C-412,768 -492,706 -496,607z"
   id="glyph952" />
<glyph
   unicode="̒"
   horiz-adv-x="0"
   d="M-254,725l37,100l-101,0l-49,-88C-387,703 -393,683 -393,665C-393,625 -362,598 -300,598C-238,598 -207,625 -207,665C-207,694 -223,715 -254,725z"
   id="glyph954" />
<glyph
   unicode="̛"
   horiz-adv-x="0"
   d="M-327,422l27,0C-182,422 -111,486 -111,597C-111,639 -124,675 -146,702l-110,-39C-244,649 -236,627 -236,605C-236,568 -261,542 -293,542l-34,0z"
   id="glyph956" />
<glyph
   unicode="̤"
   horiz-adv-x="0"
   d="M-401,-210C-358,-210 -325,-181 -325,-136C-325,-92 -358,-62 -401,-62C-443,-62 -476,-92 -476,-136C-476,-181 -443,-210 -401,-210M-199,-210C-157,-210 -124,-181 -124,-136C-124,-92 -157,-62 -199,-62C-242,-62 -275,-92 -275,-136C-275,-181 -242,-210 -199,-210z"
   id="glyph958" />
<glyph
   unicode="̦"
   horiz-adv-x="0"
   d="M-300,-62C-349,-62 -379,-89 -379,-129C-379,-158 -366,-179 -339,-189l-26,-79l86,0l37,67C-224,-169 -221,-147 -221,-129C-221,-89 -251,-62 -300,-62z"
   id="glyph960" />
<glyph
   unicode="̧"
   horiz-adv-x="0"
   d="M-337,-236C-242,-236 -179,-196 -179,-132C-179,-95 -203,-58 -265,-51l14,60l-99,0l-26,-110l37,0C-307,-101 -294,-111 -294,-126C-294,-142 -308,-154 -344,-154C-368,-154 -389,-148 -406,-140l-26,-75C-410,-227 -371,-236 -337,-236z"
   id="glyph962" />
<glyph
   unicode="̨"
   horiz-adv-x="0"
   d="M-382,-236C-342,-236 -300,-226 -275,-213l-25,82C-315,-139 -338,-146 -360,-146C-396,-146 -415,-128 -415,-102C-415,-68 -386,-38 -300,0l-70,45C-476,9 -530,-50 -530,-119C-530,-189 -476,-236 -382,-236z"
   id="glyph964" />
<glyph
   unicode="̮"
   horiz-adv-x="0"
   d="M-300,-221C-188,-221 -109,-161 -104,-71l-109,0C-216,-108 -251,-133 -300,-133C-349,-133 -384,-108 -387,-71l-109,0C-491,-161 -412,-221 -300,-221z"
   id="glyph966" />
<glyph
   unicode="̱"
   horiz-adv-x="0"
   d="M-497,-187l394,0l0,102l-394,0z"
   id="glyph968" />
<glyph
   unicode="̵"
   horiz-adv-x="0"
   d="M-510,385l420,0l0,99l-420,0z"
   id="glyph970" />
<glyph
   unicode="̶"
   horiz-adv-x="0"
   d="M-906,373l847,0l0,121l-847,0z"
   id="glyph972" />
<glyph
   unicode="̷"
   horiz-adv-x="0"
   d="M-423,219l356,265l-63,90l-357,-266z"
   id="glyph974" />
<glyph
   unicode="̸"
   horiz-adv-x="0"
   d="M-582,-70l86,0l441,677l-86,0z"
   id="glyph976" />
<glyph
   unicode="Δ"
   horiz-adv-x="786"
   d="M490,700l-195,0l-309,-700l814,0M391,516l149,-359l-299,0z"
   id="glyph978" />
<glyph
   unicode="Ω"
   horiz-adv-x="884"
   d="M8,0l378,0l0,146C303,188 253,267 253,359C253,479 335,550 442,550C549,550 630,479 630,359C630,268 581,189 497,146l0,-146l378,0l0,157l-139,0C791,211 827,289 827,383C827,578 661,714 442,714C223,714 56,578 56,384C56,289 92,211 147,157l-139,0z"
   id="glyph980" />
<glyph
   unicode="μ"
   horiz-adv-x="695"
   d="M444,542l0,-261C444,190 398,153 342,153C285,153 251,186 251,270l0,272l-190,0l0,-736l190,0l0,209C275,-1 304,-9 338,-9C385,-9 434,10 466,60l0,-60l168,0l0,542z"
   id="glyph982" />
<glyph
   unicode="Ѐ"
   horiz-adv-x="675"
   d="M448,757l-134,152l-190,0l188,-152M271,153l0,128l311,0l0,148l-311,0l0,118l353,0l0,153l-549,0l0,-700l562,0l0,153z"
   id="glyph984" />
<glyph
   unicode="Ё"
   horiz-adv-x="675"
   d="M244,756C289,756 323,787 323,834C323,881 289,913 244,913C199,913 165,881 165,834C165,787 199,756 244,756M456,756C501,756 535,787 535,834C535,881 501,913 456,913C411,913 377,881 377,834C377,787 411,756 456,756M271,153l0,128l311,0l0,148l-311,0l0,118l353,0l0,153l-549,0l0,-700l562,0l0,153z"
   id="glyph986" />
<glyph
   unicode="Ђ"
   horiz-adv-x="858"
   d="M425,420l0,123l247,0l0,157l-656,0l0,-157l214,0l0,-543l195,0l0,261C465,277 502,285 534,285C596,285 639,257 639,210C639,161 596,145 558,145C544,145 531,147 521,150l-20,-150C530,-5 559,-8 587,-8C722,-8 834,57 834,213C834,357 742,441 579,441C533,441 482,434 425,420z"
   id="glyph988" />
<glyph
   unicode="Ѓ"
   horiz-adv-x="602"
   d="M547,909l-190,0l-134,-152l136,0M588,700l-513,0l0,-700l195,0l0,543l317,0z"
   id="glyph990" />
<glyph
   unicode="Є"
   horiz-adv-x="719"
   d="M411,150C328,150 267,197 244,274l251,0l0,146l-253,0C264,500 326,550 411,550C479,550 534,521 579,468l125,114C636,667 531,714 401,714C186,714 32,563 32,350C32,137 186,-14 401,-14C531,-14 636,33 704,118l-125,114C534,179 479,150 411,150z"
   id="glyph992" />
<glyph
   unicode="Ѕ"
   horiz-adv-x="662"
   d="M325,-14C533,-14 635,90 635,212C635,470 238,390 238,497C238,532 268,560 351,560C412,560 478,542 545,506l61,147C537,693 443,714 352,714C144,714 42,612 42,487C42,227 440,308 440,197C440,163 408,140 326,140C245,140 157,168 95,209l-65,-146C96,17 210,-14 325,-14z"
   id="glyph994" />
<glyph
   unicode="І"
   horiz-adv-x="345"
   d="M75,0l195,0l0,700l-195,0z"
   id="glyph996" />
<glyph
   unicode="Ї"
   horiz-adv-x="339"
   d="M63,756C108,756 143,787 143,834C143,881 108,913 63,913C19,913 -16,881 -16,834C-16,787 19,756 63,756M275,756C320,756 355,787 355,834C355,881 320,913 275,913C231,913 196,881 196,834C196,787 231,756 275,756M70,0l198,0l0,700l-198,0z"
   id="glyph998" />
<glyph
   unicode="Ј"
   horiz-adv-x="584"
   d="M250,-14C426,-14 520,76 520,258l0,442l-438,0l0,-153l242,0l0,-301C324,179 293,144 236,144C191,144 152,169 115,217l-108,-128C61,22 148,-14 250,-14z"
   id="glyph1000" />
<glyph
   unicode="Љ"
   horiz-adv-x="1184"
   d="M890,477l-162,0l0,223l-564,0l-10,-279C148,263 133,159 52,159C43,159 34,160 25,162l-11,-162C47,-8 77,-12 104,-12C282,-12 319,156 328,429l4,114l201,0l0,-543l331,0C1046,0 1159,85 1159,249C1159,402 1060,477 890,477M851,142l-123,0l0,194l123,0C918,336 960,311 960,245C960,179 917,142 851,142z"
   id="glyph1002" />
<glyph
   unicode="Њ"
   horiz-adv-x="1166"
   d="M887,452l-160,0l0,248l-195,0l0,-254l-262,0l0,254l-195,0l0,-700l195,0l0,289l262,0l0,-289l337,0C1039,0 1143,85 1143,233C1143,373 1049,452 887,452M845,142l-118,0l0,168l118,0C907,310 943,282 943,227C943,172 906,142 845,142z"
   id="glyph1004" />
<glyph
   unicode="Ћ"
   horiz-adv-x="865"
   d="M576,429C529,429 479,421 425,406l0,137l238,0l0,157l-648,0l0,-157l215,0l0,-543l195,0l0,240C463,257 497,266 529,266C595,266 639,227 639,142l0,-142l195,0l0,167C834,346 733,429 576,429z"
   id="glyph1006" />
<glyph
   unicode="Ќ"
   horiz-adv-x="750"
   d="M610,909l-190,0l-134,-152l136,0M517,0l223,0l-221,362l219,338l-208,0l-167,-272l-95,0l0,272l-197,0l0,-700l197,0l0,268l90,0z"
   id="glyph1008" />
<glyph
   unicode="Ѝ"
   horiz-adv-x="820"
   d="M372,757l136,0l-134,152l-190,0M75,0l187,0l288,410l0,-410l195,0l0,700l-186,0l-289,-411l0,411l-195,0z"
   id="glyph1010" />
<glyph
   unicode="Ў"
   horiz-adv-x="743"
   d="M369,742C514,742 576,800 576,905l-133,0C442,859 419,836 369,836C319,836 298,859 297,905l-133,0C164,800 224,742 369,742M547,700l-169,-338l-163,338l-209,0l272,-504C252,158 224,142 185,142C164,142 142,146 115,154l-47,-146C111,-9 152,-18 192,-18C297,-18 388,42 450,159l290,541z"
   id="glyph1012" />
<glyph
   unicode="Џ"
   horiz-adv-x="809"
   d="M734,700l-195,0l0,-543l-269,0l0,543l-195,0l0,-700l238,0l0,-143l182,0l0,143l239,0z"
   id="glyph1014" />
<glyph
   unicode="А"
   horiz-adv-x="824"
   d="M613,0l206,0l-310,700l-195,0l-309,-700l202,0l55,136l296,0M320,282l90,224l90,-224z"
   id="glyph1016" />
<glyph
   unicode="Б"
   horiz-adv-x="741"
   d="M75,0l350,0C607,0 714,83 714,225C714,360 621,434 451,434l-181,0l0,113l390,0l0,153l-585,0M270,142l0,151l142,0C480,293 514,269 514,219C514,169 478,142 412,142z"
   id="glyph1018" />
<glyph
   unicode="В"
   horiz-adv-x="744"
   d="M585,366C645,396 680,449 680,518C680,634 582,700 415,700l-340,0l0,-700l359,0C614,0 712,77 712,200C712,284 666,340 585,366M270,558l126,0C452,558 480,534 480,489C480,443 452,420 396,420l-126,0M426,142l-156,0l0,144l156,0C483,286 512,263 512,215C512,167 483,142 426,142z"
   id="glyph1020" />
<glyph
   unicode="Г"
   horiz-adv-x="602"
   d="M588,700l-513,0l0,-700l195,0l0,543l317,0z"
   id="glyph1022" />
<glyph
   unicode="Д"
   horiz-adv-x="847"
   d="M732,157l0,543l-564,0l-8,-216C153,297 130,159 41,157l-25,0l0,-298l182,0l0,141l448,0l0,-141l181,0l0,298M333,467l3,76l201,0l0,-386l-265,0C313,216 328,330 333,467z"
   id="glyph1024" />
<glyph
   unicode="Е"
   horiz-adv-x="675"
   d="M271,153l0,128l311,0l0,148l-311,0l0,118l353,0l0,153l-549,0l0,-700l562,0l0,153z"
   id="glyph1026" />
<glyph
   unicode="Ж"
   horiz-adv-x="1109"
   d="M871,0l228,0l-199,367l187,333l-207,0l-143,-272l-85,0l0,272l-194,0l0,-272l-89,0l-140,272l-208,0l187,-333l-199,-367l229,0l137,268l83,0l0,-268l194,0l0,268l83,0z"
   id="glyph1028" />
<glyph
   unicode="З"
   horiz-adv-x="664"
   d="M508,364C567,393 604,446 604,512C604,642 454,716 284,716C202,716 115,699 38,662l58,-150C156,544 225,560 282,560C351,560 404,536 404,489C404,453 374,430 320,430l-163,0l0,-145l179,0C392,285 432,267 432,224C432,170 366,142 282,142C218,142 143,158 78,191l-59,-138C110,7 211,-15 304,-15C482,-15 632,63 632,197C632,274 585,335 508,364z"
   id="glyph1030" />
<glyph
   unicode="И"
   horiz-adv-x="820"
   d="M75,0l187,0l288,410l0,-410l195,0l0,700l-186,0l-289,-411l0,411l-195,0z"
   id="glyph1032" />
<glyph
   unicode="Й"
   horiz-adv-x="820"
   d="M409,742C554,742 616,800 616,905l-133,0C482,859 459,836 409,836C359,836 338,859 337,905l-133,0C204,800 264,742 409,742M75,0l187,0l288,410l0,-410l195,0l0,700l-186,0l-289,-411l0,411l-195,0z"
   id="glyph1034" />
<glyph
   unicode="К"
   horiz-adv-x="750"
   d="M517,0l223,0l-221,362l219,338l-208,0l-167,-272l-95,0l0,272l-197,0l0,-700l197,0l0,268l90,0z"
   id="glyph1036" />
<glyph
   unicode="Л"
   horiz-adv-x="803"
   d="M164,700l-10,-279C148,263 133,159 52,159C43,159 34,160 25,162l-11,-162C47,-8 77,-12 104,-12C282,-12 319,156 328,429l4,114l201,0l0,-543l195,0l0,700z"
   id="glyph1038" />
<glyph
   unicode="М"
   horiz-adv-x="963"
   d="M889,0l-2,700l-163,0l-240,-404l-246,404l-163,0l0,-700l182,0l0,363l180,-294l88,0l180,302l1,-371z"
   id="glyph1040" />
<glyph
   unicode="Н"
   horiz-adv-x="816"
   d="M543,700l0,-263l-270,0l0,263l-198,0l0,-700l198,0l0,273l270,0l0,-273l198,0l0,700z"
   id="glyph1042" />
<glyph
   unicode="О"
   horiz-adv-x="839"
   d="M419,-14C643,-14 808,140 808,350C808,560 643,714 419,714C195,714 30,560 30,350C30,140 195,-14 419,-14M419,150C313,150 230,229 230,350C230,471 313,550 419,550C525,550 608,471 608,350C608,229 525,150 419,150z"
   id="glyph1044" />
<glyph
   unicode="П"
   horiz-adv-x="807"
   d="M75,700l0,-700l195,0l0,543l266,0l0,-543l196,0l0,700z"
   id="glyph1046" />
<glyph
   unicode="Р"
   horiz-adv-x="730"
   d="M395,700l-320,0l0,-700l198,0l0,183l122,0C586,183 706,282 706,441C706,601 586,700 395,700M383,339l-110,0l0,205l110,0C465,544 506,506 506,441C506,377 465,339 383,339z"
   id="glyph1048" />
<glyph
   unicode="С"
   horiz-adv-x="731"
   d="M416,-14C545,-14 649,33 717,118l-126,114C547,179 493,150 426,150C311,150 231,230 231,350C231,470 311,550 426,550C493,550 547,521 591,468l126,114C649,667 545,714 416,714C194,714 31,563 31,350C31,137 194,-14 416,-14z"
   id="glyph1050" />
<glyph
   unicode="Т"
   horiz-adv-x="655"
   d="M639,700l-624,0l0,-157l215,0l0,-543l195,0l0,543l214,0z"
   id="glyph1052" />
<glyph
   unicode="У"
   horiz-adv-x="743"
   d="M547,700l-169,-338l-163,338l-209,0l272,-504C252,158 224,142 185,142C164,142 142,146 115,154l-47,-146C111,-9 152,-18 192,-18C297,-18 388,42 450,159l290,541z"
   id="glyph1054" />
<glyph
   unicode="Ф"
   horiz-adv-x="965"
   d="M937,352C937,535 810,645 573,661l0,72l-181,0l0,-72C155,643 28,535 28,352C28,170 155,61 392,44l0,-77l181,0l0,77C811,58 937,170 937,352M573,198l0,308C689,493 745,445 745,353C745,261 692,211 573,198M220,352C220,445 272,492 392,506l0,-307C279,213 220,260 220,352z"
   id="glyph1056" />
<glyph
   unicode="Х"
   horiz-adv-x="755"
   d="M22,701l233,-344l-249,-357l228,0l140,207l141,-207l233,0l-250,366l230,335l-230,0l-124,-190l-125,190z"
   id="glyph1058" />
<glyph
   unicode="Ц"
   horiz-adv-x="849"
   d="M734,157l0,543l-195,0l0,-543l-269,0l0,543l-195,0l0,-700l574,0l0,-143l181,0l0,300z"
   id="glyph1060" />
<glyph
   unicode="Ч"
   horiz-adv-x="757"
   d="M487,700l0,-304C452,380 409,372 363,372C276,372 231,416 231,507l0,193l-195,0l0,-215C36,307 142,211 338,211C384,211 433,220 487,238l0,-238l195,0l0,700z"
   id="glyph1062" />
<glyph
   unicode="Ш"
   horiz-adv-x="1099"
   d="M829,700l0,-543l-181,0l0,543l-195,0l0,-543l-183,0l0,543l-195,0l0,-700l949,0l0,700z"
   id="glyph1064" />
<glyph
   unicode="Щ"
   horiz-adv-x="1135"
   d="M1024,157l0,543l-195,0l0,-543l-181,0l0,543l-195,0l0,-543l-183,0l0,543l-195,0l0,-700l858,0l0,-141l182,0l0,298z"
   id="glyph1066" />
<glyph
   unicode="Ъ"
   horiz-adv-x="855"
   d="M562,477l-163,0l0,223l-384,0l0,-157l189,0l0,-543l331,0C717,0 830,85 830,249C830,402 731,477 562,477M522,142l-123,0l0,194l123,0C589,336 631,311 631,245C631,179 588,142 522,142z"
   id="glyph1068" />
<glyph
   unicode="Ы"
   horiz-adv-x="1049"
   d="M432,477l-162,0l0,223l-195,0l0,-700l331,0C588,0 701,85 701,249C701,402 602,477 432,477M778,0l195,0l0,700l-195,0M393,142l-123,0l0,194l123,0C460,336 502,311 502,245C502,179 459,142 393,142z"
   id="glyph1070" />
<glyph
   unicode="Ь"
   horiz-adv-x="726"
   d="M432,477l-162,0l0,223l-195,0l0,-700l331,0C588,0 701,85 701,249C701,402 602,477 432,477M393,142l-123,0l0,194l123,0C460,336 502,311 502,245C502,179 459,142 393,142z"
   id="glyph1072" />
<glyph
   unicode="Э"
   horiz-adv-x="718"
   d="M317,714C187,714 82,667 14,582l125,-114C184,521 239,550 307,550C390,550 451,503 474,426l-251,0l0,-146l253,0C454,200 392,150 307,150C239,150 184,179 139,232l-125,-114C82,33 187,-14 317,-14C532,-14 686,137 686,350C686,563 532,714 317,714z"
   id="glyph1074" />
<glyph
   unicode="Ю"
   horiz-adv-x="1123"
   d="M714,714C527,714 383,602 345,438l-75,0l0,262l-195,0l0,-700l195,0l0,272l73,0C377,103 523,-14 714,-14C931,-14 1091,140 1091,350C1091,560 931,714 714,714M714,150C614,150 536,228 536,350C536,472 614,550 714,550C813,550 891,472 891,350C891,228 813,150 714,150z"
   id="glyph1076" />
<glyph
   unicode="Я"
   horiz-adv-x="736"
   d="M346,700C154,700 33,599 33,434C33,325 85,246 177,205l-142,-205l208,0l115,176l108,0l0,-176l195,0l0,700M350,544l116,0l0,-215l-118,0C273,329 233,367 233,437C233,508 273,544 350,544z"
   id="glyph1078" />
<glyph
   unicode="а"
   horiz-adv-x="612"
   d="M285,551C200,551 108,529 46,488l64,-129C147,388 205,406 257,406C332,406 369,375 372,320l-108,0C96,320 23,258 23,158C23,64 95,-9 225,-9C304,-9 358,18 385,70l0,-70l177,0l0,301C562,473 461,551 285,551M278,111C233,111 207,134 207,166C207,199 229,221 290,221l82,0l0,-47C357,131 320,111 278,111z"
   id="glyph1080" />
<glyph
   unicode="б"
   horiz-adv-x="679"
   d="M399,494C325,494 264,469 218,426C229,515 278,559 394,580l228,43l-26,159l-263,-50C127,693 37,554 37,342C37,95 169,-14 350,-14C525,-14 655,89 655,245C655,396 559,494 399,494M351,130C284,130 239,178 239,244C239,314 284,356 351,356C416,356 461,315 461,245C461,182 421,130 351,130z"
   id="glyph1082" />
<glyph
   unicode="в"
   horiz-adv-x="626"
   d="M501,284C550,308 578,349 578,401C578,491 496,542 355,542l-291,0l0,-542l305,0C521,0 594,61 594,156C594,219 563,263 501,284M234,420l104,0C382,420 404,405 404,373C404,341 382,324 338,324l-104,0M352,123l-118,0l0,100l120,0C399,223 421,206 421,173C421,140 398,123 352,123z"
   id="glyph1084" />
<glyph
   unicode="г"
   horiz-adv-x="528"
   d="M518,542l-454,0l0,-542l189,0l0,391l265,0z"
   id="glyph1086" />
<glyph
   unicode="д"
   horiz-adv-x="723"
   d="M630,152l0,390l-501,0l-7,-189C117,245 102,153 31,152l-20,0l0,-264l177,0l0,112l341,0l0,-112l176,0l0,264M293,339l2,52l145,0l0,-239l-188,0C285,190 290,258 293,339z"
   id="glyph1088" />
<glyph
   unicode="е"
   horiz-adv-x="649"
   d="M613,270C613,449 483,551 323,551C152,551 25,435 25,272C25,110 150,-9 343,-9C446,-9 522,21 574,79l-100,104C437,151 402,136 349,136C279,136 232,168 216,223l394,0C611,238 613,256 613,270M324,416C383,416 425,380 435,323l-222,0C224,380 265,416 324,416z"
   id="glyph1090" />
<glyph
   unicode="ж"
   horiz-adv-x="950"
   d="M723,0l225,0l-164,280l152,262l-201,0l-107,-200l-59,0l0,200l-187,0l0,-200l-61,0l-106,200l-201,0l151,-262l-163,-280l225,0l98,193l57,0l0,-193l187,0l0,193l56,0z"
   id="glyph1092" />
<glyph
   unicode="з"
   horiz-adv-x="572"
   d="M446,281C496,306 529,348 529,399C529,499 412,553 264,553C189,553 108,536 31,504l45,-125C137,402 194,415 248,415C310,415 337,399 337,372C337,345 315,331 270,331l-100,0l0,-111l117,0C331,220 352,207 352,178C352,145 313,128 254,128C187,128 123,139 63,164l-49,-128C90,3 177,-11 260,-11C418,-11 544,52 544,163C544,219 508,261 446,281z"
   id="glyph1094" />
<glyph
   unicode="и"
   horiz-adv-x="719"
   d="M64,0l176,0l225,285l0,-285l190,0l0,542l-175,0l-227,-284l0,284l-189,0z"
   id="glyph1096" />
<glyph
   unicode="й"
   horiz-adv-x="719"
   d="M347,594C476,594 537,647 537,759l-125,0C412,715 391,689 346,689C300,689 283,715 282,759l-123,0C160,647 219,594 347,594M64,0l176,0l225,285l0,-285l190,0l0,542l-175,0l-227,-284l0,284l-189,0z"
   id="glyph1098" />
<glyph
   unicode="к"
   horiz-adv-x="667"
   d="M444,0l224,0l-194,282l182,260l-201,0l-133,-200l-68,0l0,200l-190,0l0,-542l190,0l0,193l64,0z"
   id="glyph1100" />
<glyph
   unicode="л"
   horiz-adv-x="680"
   d="M126,542l-8,-226C114,223 107,153 41,153C34,153 26,154 17,155l-8,-155C44,-8 75,-13 101,-13C242,-13 277,113 285,308l4,83l137,0l0,-391l190,0l0,542z"
   id="glyph1102" />
<glyph
   unicode="м"
   horiz-adv-x="825"
   d="M761,0l-1,542l-179,0l-166,-283l-151,283l-200,0l0,-542l171,0l0,289l135,-241l81,0l139,237l0,-285z"
   id="glyph1104" />
<glyph
   unicode="н"
   horiz-adv-x="702"
   d="M64,0l189,0l0,190l195,0l0,-190l190,0l0,542l-190,0l0,-201l-195,0l0,201l-189,0z"
   id="glyph1106" />
<glyph
   unicode="о"
   horiz-adv-x="662"
   d="M331,-9C510,-9 637,108 637,272C637,435 510,551 331,551C154,551 25,435 25,272C25,108 154,-9 331,-9M331,142C267,142 217,189 217,272C217,354 267,400 331,400C396,400 445,354 445,272C445,189 396,142 331,142z"
   id="glyph1108" />
<glyph
   unicode="п"
   horiz-adv-x="689"
   d="M64,542l0,-542l189,0l0,391l182,0l0,-391l189,0l0,542z"
   id="glyph1110" />
<glyph
   unicode="р"
   horiz-adv-x="698"
   d="M405,551C334,551 281,531 245,488l0,54l-181,0l0,-736l190,0l0,242C291,10 342,-9 405,-9C552,-9 671,99 671,271C671,443 552,551 405,551M365,142C301,142 251,189 251,271C251,353 301,400 365,400C429,400 479,353 479,271C479,189 429,142 365,142z"
   id="glyph1112" />
<glyph
   unicode="с"
   horiz-adv-x="605"
   d="M336,-9C459,-9 553,46 590,140l-147,75C417,164 379,142 335,142C269,142 217,188 217,272C217,354 269,400 335,400C379,400 417,378 443,327l147,75C553,496 459,551 336,551C154,551 25,435 25,272C25,107 154,-9 336,-9z"
   id="glyph1114" />
<glyph
   unicode="т"
   horiz-adv-x="558"
   d="M548,542l-538,0l0,-151l175,0l0,-391l189,0l0,391l174,0z"
   id="glyph1116" />
<glyph
   unicode="у"
   horiz-adv-x="640"
   d="M461,542l-134,-331l-133,331l-195,0l232,-549C215,-39 194,-53 157,-53C127,-53 95,-41 73,-21l-66,-133C43,-184 107,-203 164,-203C271,-203 351,-162 408,-22l234,564z"
   id="glyph1118" />
<glyph
   unicode="ф"
   horiz-adv-x="874"
   d="M849,273C849,441 731,534 521,551l0,191l-168,0l0,-191C139,535 25,442 25,273C25,102 142,5 353,-12l0,-182l168,0l0,183C731,5 849,103 849,273M206,273C206,355 246,399 353,412l0,-284C247,141 206,187 206,273M521,128l0,283C627,399 669,356 669,273C669,186 627,141 521,128z"
   id="glyph1120" />
<glyph
   unicode="х"
   horiz-adv-x="624"
   d="M624,0l-207,278l200,264l-201,0l-100,-137l-96,137l-214,0l200,-271l-206,-271l206,0l104,142l97,-142z"
   id="glyph1122" />
<glyph
   unicode="ц"
   horiz-adv-x="712"
   d="M619,152l0,390l-190,0l0,-390l-176,0l0,390l-189,0l0,-542l454,0l0,-113l176,0l0,265z"
   id="glyph1124" />
<glyph
   unicode="ч"
   horiz-adv-x="647"
   d="M394,542l0,-217C367,311 336,303 300,303C247,303 218,325 218,387l0,155l-190,0l0,-168C28,225 106,162 256,162C313,162 359,175 394,193l0,-193l189,0l0,542z"
   id="glyph1126" />
<glyph
   unicode="ш"
   horiz-adv-x="987"
   d="M735,542l0,-390l-146,0l0,390l-189,0l0,-390l-147,0l0,390l-189,0l0,-542l859,0l0,542z"
   id="glyph1128" />
<glyph
   unicode="щ"
   horiz-adv-x="987"
   d="M923,152l0,390l-188,0l0,-390l-146,0l0,390l-189,0l0,-390l-147,0l0,390l-189,0l0,-542l756,0l0,-104l176,0l0,256z"
   id="glyph1130" />
<glyph
   unicode="ъ"
   horiz-adv-x="705"
   d="M467,374l-117,0l0,168l-340,0l0,-151l151,0l0,-391l281,0C596,0 688,71 688,193C688,307 610,374 467,374M430,131l-80,0l0,127l80,0C473,258 495,237 495,197C495,155 473,131 430,131z"
   id="glyph1132" />
<glyph
   unicode="ы"
   horiz-adv-x="889"
   d="M374,374l-121,0l0,168l-189,0l0,-542l286,0C504,-1 589,72 589,192C589,307 518,373 374,374M635,0l189,0l0,542l-189,0M331,130l-78,1l0,127l78,0C377,257 403,239 403,195C403,151 377,130 331,130z"
   id="glyph1134" />
<glyph
   unicode="ь"
   horiz-adv-x="621"
   d="M382,374l-129,0l0,168l-189,0l0,-542l294,0C512,-1 604,72 604,192C604,307 526,373 382,374M339,130l-86,1l0,127l86,0C385,257 411,239 411,195C411,151 385,130 339,130z"
   id="glyph1136" />
<glyph
   unicode="э"
   horiz-adv-x="600"
   d="M264,554C154,554 66,516 9,448l109,-99C155,390 200,413 256,413C319,413 367,384 388,336l-201,0l0,-126l202,0C368,160 320,130 256,130C200,130 155,153 118,194l-109,-100C66,26 154,-12 264,-12C446,-12 575,105 575,272C575,437 446,554 264,554z"
   id="glyph1138" />
<glyph
   unicode="ю"
   horiz-adv-x="918"
   d="M596,551C454,551 346,473 311,355l-58,0l0,187l-189,0l0,-542l189,0l0,195l57,0C342,73 452,-9 596,-9C768,-9 892,108 892,272C892,436 768,551 596,551M596,142C535,142 487,189 487,272C487,354 535,400 596,400C657,400 705,354 705,272C705,189 657,142 596,142z"
   id="glyph1140" />
<glyph
   unicode="я"
   horiz-adv-x="638"
   d="M301,542C135,542 31,468 31,338C31,260 71,204 142,173l-120,-173l201,0l96,147l86,0l0,-147l169,0l0,542M305,392l100,0l0,-123l-101,0C252,269 225,287 225,331C225,374 254,392 305,392z"
   id="glyph1142" />
<glyph
   unicode="ѐ"
   horiz-adv-x="649"
   d="M417,607l-134,152l-190,0l188,-152M613,270C613,449 483,551 323,551C152,551 25,435 25,272C25,110 150,-9 343,-9C446,-9 522,21 574,79l-100,104C437,151 402,136 349,136C279,136 232,168 216,223l394,0C611,238 613,256 613,270M324,416C383,416 425,380 435,323l-222,0C224,380 265,416 324,416z"
   id="glyph1144" />
<glyph
   unicode="ё"
   horiz-adv-x="649"
   d="M213,606C258,606 292,637 292,684C292,731 258,763 213,763C168,763 134,731 134,684C134,637 168,606 213,606M425,606C470,606 504,637 504,684C504,731 470,763 425,763C380,763 346,731 346,684C346,637 380,606 425,606M613,270C613,449 483,551 323,551C152,551 25,435 25,272C25,110 150,-9 343,-9C446,-9 522,21 574,79l-100,104C437,151 402,136 349,136C279,136 232,168 216,223l394,0C611,238 613,256 613,270M324,416C383,416 425,380 435,323l-222,0C224,380 265,416 324,416z"
   id="glyph1146" />
<glyph
   unicode="ђ"
   horiz-adv-x="691"
   d="M417,551C348,551 288,528 245,483l0,104l221,0l0,100l-221,0l0,55l-181,0l0,-55l-93,0l0,-100l93,0l0,-587l190,0l0,262C254,352 301,390 362,390C417,390 450,357 450,279l0,-264C450,-34 428,-56 395,-56C373,-56 352,-50 336,-40l-48,-135C321,-194 370,-203 420,-203C560,-203 640,-118 640,14l0,296C640,478 543,551 417,551z"
   id="glyph1148" />
<glyph
   unicode="ѓ"
   horiz-adv-x="528"
   d="M519,759l-190,0l-134,-152l136,0M64,0l189,0l0,391l265,0l0,151l-454,0z"
   id="glyph1150" />
<glyph
   unicode="є"
   horiz-adv-x="601"
   d="M344,129C281,129 233,158 212,206l201,0l0,126l-202,0C232,382 280,412 344,412C400,412 445,389 482,348l109,100C534,516 446,554 336,554C154,554 25,437 25,270C25,105 154,-12 336,-12C446,-12 534,26 591,94l-109,99C445,152 400,129 344,129z"
   id="glyph1152" />
<glyph
   unicode="ѕ"
   horiz-adv-x="558"
   d="M266,-9C442,-9 534,69 534,169C534,384 215,303 215,378C215,398 238,416 302,416C350,416 404,406 458,376l57,129C461,535 377,551 301,551C131,551 37,473 37,371C37,154 357,237 357,164C357,141 336,127 272,127C206,127 133,146 83,177l-57,-130C79,14 174,-9 266,-9z"
   id="glyph1154" />
<glyph
   unicode="і"
   horiz-adv-x="318"
   d="M159,602C229,602 275,646 275,706C275,763 229,804 159,804C89,804 43,760 43,703C43,646 89,602 159,602M64,0l190,0l0,542l-190,0z"
   id="glyph1156" />
<glyph
   unicode="ї"
   horiz-adv-x="313"
   d="M69,606C110,606 142,637 142,684C142,730 110,762 69,762C27,762 -5,730 -5,684C-5,638 27,606 69,606M244,606C285,606 317,637 317,684C317,730 285,762 244,762C202,762 170,730 170,684C170,638 202,606 244,606M61,0l190,0l0,542l-190,0z"
   id="glyph1158" />
<glyph
   unicode="ј"
   horiz-adv-x="319"
   d="M160,602C230,602 276,646 276,706C276,763 230,804 160,804C90,804 44,760 44,703C44,646 90,602 160,602M34,-203C174,-203 255,-118 255,14l0,528l-190,0l0,-527C65,-34 42,-56 9,-56C-13,-56 -34,-50 -50,-40l-48,-135C-65,-194 -16,-203 34,-203z"
   id="glyph1160" />
<glyph
   unicode="љ"
   horiz-adv-x="983"
   d="M744,374l-128,0l0,168l-490,0l-8,-226C114,223 107,153 41,153C34,153 26,154 17,155l-8,-155C44,-8 75,-13 101,-13C242,-13 277,113 285,308l4,83l137,0l0,-391l294,0C874,-1 966,72 966,192C966,307 888,373 744,374M701,130l-85,1l0,127l85,0C747,257 773,239 773,195C773,151 747,130 701,130z"
   id="glyph1162" />
<glyph
   unicode="њ"
   horiz-adv-x="983"
   d="M749,356l-121,0l0,186l-189,0l0,-186l-186,0l0,186l-189,0l0,-542l189,0l0,205l186,0l0,-205l285,0C876,0 968,70 968,185C968,296 890,356 749,356M711,127l-83,0l0,105l83,0C752,232 774,215 774,182C774,149 751,127 711,127z"
   id="glyph1164" />
<glyph
   unicode="ћ"
   horiz-adv-x="691"
   d="M417,551C353,551 296,531 254,492l0,97l191,0l0,96l-191,0l0,57l-190,0l0,-57l-115,0l0,-96l115,0l0,-589l190,0l0,262C254,352 301,390 362,390C417,390 450,357 450,279l0,-279l190,0l0,310C640,478 543,551 417,551z"
   id="glyph1166" />
<glyph
   unicode="ќ"
   horiz-adv-x="667"
   d="M568,759l-190,0l-134,-152l136,0M444,0l224,0l-194,282l182,260l-201,0l-133,-200l-68,0l0,200l-190,0l0,-542l190,0l0,193l64,0z"
   id="glyph1168" />
<glyph
   unicode="ѝ"
   horiz-adv-x="719"
   d="M309,607l136,0l-134,152l-190,0M64,0l176,0l225,285l0,-285l190,0l0,542l-175,0l-227,-284l0,284l-189,0z"
   id="glyph1170" />
<glyph
   unicode="ў"
   horiz-adv-x="640"
   d="M310,594C439,594 500,647 500,759l-125,0C375,715 354,689 309,689C263,689 246,715 245,759l-123,0C123,647 182,594 310,594M461,542l-134,-331l-133,331l-195,0l232,-549C215,-39 194,-53 157,-53C127,-53 95,-41 73,-21l-66,-133C43,-184 107,-203 164,-203C271,-203 351,-162 408,-22l234,564z"
   id="glyph1172" />
<glyph
   unicode="џ"
   horiz-adv-x="669"
   d="M605,542l-189,0l0,-390l-163,0l0,390l-189,0l0,-542l182,0l0,-113l177,0l0,113l182,0z"
   id="glyph1174" />
<glyph
   unicode="Ѣ"
   horiz-adv-x="839"
   d="M552,469l-171,0l0,71l217,0l0,116l-217,0l0,86l-195,0l0,-86l-171,0l0,-116l171,0l0,-540l339,0C708,0 814,90 814,242C814,389 721,469 552,469M513,142l-132,0l0,185l132,0C581,327 615,297 615,237C615,175 579,142 513,142z"
   id="glyph1176" />
<glyph
   unicode="ѣ"
   horiz-adv-x="667"
   d="M428,374l-129,0l0,97l188,0l0,115l-188,0l0,156l-189,0l0,-156l-110,0l0,-115l110,0l0,-471l293,0C558,-1 650,71 650,193C650,307 571,373 428,374M385,130l-86,1l0,127l86,0C430,257 456,239 456,195C456,151 430,130 385,130z"
   id="glyph1178" />
<glyph
   unicode="Ѫ"
   horiz-adv-x="971"
   d="M914,138C858,313 782,378 680,387l183,196l0,117l-755,0l0,-118l180,-195C188,376 116,311 59,138l-50,-138l203,0l27,96C268,218 312,257 370,257l26,0l0,-257l178,0l0,257l29,0C659,257 703,215 731,96l27,-96l204,0M651,565l-165,-177l-2,0l-163,177z"
   id="glyph1180" />
<glyph
   unicode="ѫ"
   horiz-adv-x="811"
   d="M771,102C724,242 667,294 586,303l136,134l0,105l-635,0l0,-105l135,-134C143,293 88,240 40,102l-37,-102l184,0l18,64C226,157 256,187 301,187l22,0l0,-187l162,0l0,187l25,0C555,187 584,157 605,64l18,-64l185,0M530,426l-126,-120l-124,120z"
   id="glyph1182" />
<glyph
   unicode="Ѳ"
   horiz-adv-x="839"
   d="M420,714C195,714 31,560 31,350C31,140 195,-14 420,-14C644,-14 808,140 808,350C808,560 644,714 420,714M420,550C507,550 578,496 601,410l-363,0C261,496 332,550 420,550M420,150C333,150 262,203 239,288l361,0C577,203 507,150 420,150z"
   id="glyph1184" />
<glyph
   unicode="ѳ"
   horiz-adv-x="668"
   d="M334,551C153,551 24,436 24,272C24,108 153,-9 334,-9C514,-9 643,108 643,272C643,436 514,551 334,551M334,419C393,419 437,385 455,330l-242,0C230,386 274,419 334,419M334,124C275,124 232,157 214,212l240,0C436,157 393,124 334,124z"
   id="glyph1186" />
<glyph
   unicode="Ѵ"
   horiz-adv-x="811"
   d="M289,0l195,0l160,441C666,504 689,530 732,530C746,530 761,527 778,523l19,179C758,711 723,716 692,716C590,716 527,665 491,559l-102,-294l-169,435l-214,0z"
   id="glyph1188" />
<glyph
   unicode="ѵ"
   horiz-adv-x="678"
   d="M405,439l-74,-200l-125,303l-207,0l236,-542l189,0l125,314C568,360 580,378 610,378C621,378 635,375 652,371l18,174C634,554 601,558 572,558C488,558 435,520 405,439z"
   id="glyph1190" />
<glyph
   unicode="Ҋ"
   horiz-adv-x="865"
   d="M409,742C554,742 616,800 616,905l-133,0C482,859 459,836 409,836C359,836 338,859 337,905l-133,0C204,800 264,742 409,742M745,157l0,543l-186,0l-289,-411l0,411l-195,0l0,-700l187,0l288,410l0,-410l83,0l-25,-141l155,0l85,298z"
   id="glyph1192" />
<glyph
   unicode="ҋ"
   horiz-adv-x="750"
   d="M347,598C459,598 539,660 543,759l-116,0C425,719 391,693 347,693C303,693 269,719 267,759l-116,0C155,660 235,598 347,598M655,152l0,390l-175,0l-227,-284l0,284l-189,0l0,-542l176,0l225,285l0,-285l68,0l-20,-104l150,0l74,256z"
   id="glyph1194" />
<glyph
   unicode="Ҍ"
   horiz-adv-x="760"
   d="M474,469l-171,0l0,71l210,0l0,116l-210,0l0,86l-195,0l0,-86l-90,0l0,-116l90,0l0,-540l339,0C629,0 736,90 736,242C736,389 643,469 474,469M434,142l-131,0l0,185l131,0C502,327 536,297 536,237C536,175 500,142 434,142z"
   id="glyph1196" />
<glyph
   unicode="ҍ"
   horiz-adv-x="661"
   d="M424,349l-129,0l0,41l188,0l0,108l-188,0l0,44l-189,0l0,-44l-93,0l0,-108l93,0l0,-390l293,0C554,-1 646,65 646,181C646,288 567,349 424,349M381,122l-86,0l0,118l86,0C426,240 453,225 453,183C453,140 426,122 381,122z"
   id="glyph1198" />
<glyph
   unicode="Ҏ"
   horiz-adv-x="736"
   d="M706,433C706,601 586,700 395,700l-320,0l0,-700l198,0l0,166l122,0C437,166 475,171 510,180l80,-102l67,54l-65,83C665,260 706,334 706,433M383,322l-110,0l0,222l110,0C465,544 506,506 506,433C506,400 498,374 481,356l-82,104l-66,-54l65,-84z"
   id="glyph1200" />
<glyph
   unicode="ҏ"
   horiz-adv-x="704"
   d="M675,271C675,443 557,551 411,551C335,551 280,528 245,482l0,60l-181,0l0,-736l190,0l0,247C290,12 342,-9 411,-9C448,-9 483,-2 514,11l58,-73l64,49l-51,67C640,102 675,177 675,271M369,142C301,142 251,188 251,271C251,353 301,400 369,400C437,400 487,353 487,271C487,243 481,220 472,201l-53,68l-68,-53l55,-69C394,144 382,142 369,142z"
   id="glyph1202" />
<glyph
   unicode="Ґ"
   horiz-adv-x="603"
   d="M75,0l195,0l0,543l318,0l0,300l-182,0l0,-143l-331,0z"
   id="glyph1204" />
<glyph
   unicode="ґ"
   horiz-adv-x="522"
   d="M64,0l189,0l0,391l258,0l0,262l-176,0l0,-111l-271,0z"
   id="glyph1206" />
<glyph
   unicode="Ғ"
   horiz-adv-x="653"
   d="M632,543l1,157l-513,0l0,-323l-102,0l0,-116l102,0l0,-261l195,0l0,261l261,0l0,116l-261,0l0,166z"
   id="glyph1208" />
<glyph
   unicode="ғ"
   horiz-adv-x="569"
   d="M555,391l0,151l-454,0l0,-260l-82,0l0,-107l82,0l0,-175l189,0l0,175l181,0l0,107l-181,0l0,109z"
   id="glyph1210" />
<glyph
   unicode="Ҕ"
   horiz-adv-x="708"
   d="M270,376l0,167l338,0l0,157l-533,0l0,-700l195,0l0,224C304,239 337,247 366,247C437,247 486,203 486,121C486,44 442,-4 378,-4C368,-4 358,-3 348,-1l-31,-149C342,-155 367,-157 390,-157C558,-157 681,-40 681,135C681,299 568,397 406,397C364,397 318,390 270,376z"
   id="glyph1212" />
<glyph
   unicode="ҕ"
   horiz-adv-x="643"
   d="M253,287l0,104l262,0l0,151l-451,0l0,-542l189,0l0,138C278,147 305,152 330,152C387,152 435,125 435,53C435,-3 403,-46 333,-46C320,-46 307,-45 292,-42l-39,-151C285,-200 315,-203 344,-203C516,-203 630,-91 630,62C630,208 524,302 366,302C331,302 293,297 253,287z"
   id="glyph1214" />
<glyph
   unicode="Җ"
   horiz-adv-x="1138"
   d="M1014,157l-114,210l187,333l-207,0l-143,-272l-85,0l0,272l-194,0l0,-272l-89,0l-140,272l-208,0l187,-333l-199,-367l229,0l137,268l83,0l0,-268l194,0l0,268l83,0l136,-268l67,0l0,-141l182,0l0,298z"
   id="glyph1216" />
<glyph
   unicode="җ"
   horiz-adv-x="974"
   d="M861,148l-77,132l152,262l-201,0l-107,-200l-59,0l0,200l-187,0l0,-200l-61,0l-106,200l-201,0l151,-262l-163,-280l225,0l98,193l57,0l0,-193l187,0l0,193l56,0l98,-193l67,0l0,-105l171,0l0,253z"
   id="glyph1218" />
<glyph
   unicode="Ҙ"
   horiz-adv-x="664"
   d="M632,197C632,274 585,335 508,364C567,393 604,446 604,512C604,642 454,716 284,716C202,716 115,699 38,662l58,-150C156,544 225,560 282,560C351,560 404,536 404,489C404,453 374,430 320,430l-163,0l0,-145l179,0C392,285 432,267 432,224C432,170 366,142 282,142C218,142 143,158 78,191l-59,-138C82,21 149,1 216,-8l0,-133l182,0l0,134C532,16 632,88 632,197z"
   id="glyph1220" />
<glyph
   unicode="ҙ"
   horiz-adv-x="572"
   d="M544,163C544,219 508,261 446,281C496,306 529,348 529,399C529,499 412,553 264,553C189,553 108,536 31,504l45,-125C137,402 194,415 248,415C310,415 337,399 337,372C337,345 315,331 270,331l-100,0l0,-111l117,0C331,220 352,207 352,178C352,145 313,128 254,128C187,128 123,139 63,164l-49,-128C66,14 123,0 180,-7l0,-97l177,0l0,102C467,18 544,76 544,163z"
   id="glyph1222" />
<glyph
   unicode="Қ"
   horiz-adv-x="783"
   d="M644,157l-125,205l219,338l-208,0l-167,-272l-95,0l0,272l-197,0l0,-700l197,0l0,268l90,0l159,-268l67,0l0,-141l182,0l0,298z"
   id="glyph1224" />
<glyph
   unicode="қ"
   horiz-adv-x="667"
   d="M566,148l-92,134l182,260l-201,0l-133,-200l-68,0l0,200l-190,0l0,-542l190,0l0,193l64,0l126,-193l67,0l0,-105l171,0l0,253z"
   id="glyph1226" />
<glyph
   unicode="Ҝ"
   horiz-adv-x="796"
   d="M556,0l231,0l-203,361l188,339l-208,0l-140,-272l-24,0l0,109l-89,0l0,-109l-43,0l0,272l-197,0l0,-700l197,0l0,268l43,0l0,-107l89,0l0,107l21,0z"
   id="glyph1228" />
<glyph
   unicode="ҝ"
   horiz-adv-x="682"
   d="M459,0l221,0l-161,281l148,261l-196,0l-105,-200l-13,0l0,77l-75,0l-1,-77l-29,0l0,200l-190,0l0,-542l190,0l0,193l28,0l0,-67l77,0l0,67l11,0z"
   id="glyph1230" />
<glyph
   unicode="Ҟ"
   horiz-adv-x="773"
   d="M540,0l223,0l-221,362l219,338l-208,0l-167,-272l-95,0l0,112l121,0l0,94l-121,0l0,66l-197,0l0,-66l-76,0l0,-94l76,0l0,-540l197,0l0,268l90,0z"
   id="glyph1232" />
<glyph
   unicode="ҟ"
   horiz-adv-x="665"
   d="M441,0l224,0l-193,282l182,260l-201,0l-134,-200l-67,0l0,245l123,0l0,100l-123,0l0,55l-190,0l0,-54l-83,0l0,-101l83,0l0,-587l190,0l0,193l63,0z"
   id="glyph1234" />
<glyph
   unicode="Ҡ"
   horiz-adv-x="881"
   d="M647,0l224,0l-222,362l219,338l-207,0l-167,-272l-95,0l0,272l-384,0l0,-157l187,0l0,-543l197,0l0,268l90,0z"
   id="glyph1236" />
<glyph
   unicode="ҡ"
   horiz-adv-x="761"
   d="M537,0l224,0l-194,283l182,259l-201,0l-133,-200l-67,0l0,200l-338,0l0,-147l148,0l0,-395l190,0l0,193l63,0z"
   id="glyph1238" />
<glyph
   unicode="Ң"
   horiz-adv-x="856"
   d="M741,157l0,543l-198,0l0,-263l-270,0l0,263l-198,0l0,-700l198,0l0,273l270,0l0,-273l109,0l0,-141l182,0l0,298z"
   id="glyph1240" />
<glyph
   unicode="ң"
   horiz-adv-x="732"
   d="M638,152l0,390l-190,0l0,-201l-195,0l0,201l-189,0l0,-542l189,0l0,190l195,0l0,-190l89,0l0,-104l176,0l0,256z"
   id="glyph1242" />
<glyph
   unicode="Ҥ"
   horiz-adv-x="1072"
   d="M1057,700l-514,0l0,-263l-270,0l0,263l-198,0l0,-700l198,0l0,273l270,0l0,-273l198,0l0,543l315,0z"
   id="glyph1244" />
<glyph
   unicode="ҥ"
   horiz-adv-x="912"
   d="M902,542l-454,0l0,-201l-195,0l0,201l-189,0l0,-542l189,0l0,190l195,0l0,-190l190,0l0,391l264,0z"
   id="glyph1246" />
<glyph
   unicode="Ҧ"
   horiz-adv-x="1168"
   d="M732,376l0,324l-657,0l0,-700l195,0l0,543l266,0l0,-543l196,0l0,223C769,238 802,245 831,245C903,245 948,201 948,121C948,44 905,-4 840,-4C830,-4 820,-3 810,-1l-31,-149C804,-155 829,-157 852,-157C1020,-157 1143,-40 1143,135C1143,299 1031,397 868,397C826,397 780,390 732,376z"
   id="glyph1248" />
<glyph
   unicode="ҧ"
   horiz-adv-x="1007"
   d="M619,287l0,255l-555,0l0,-542l189,0l0,391l177,0l0,-391l189,0l0,139C643,147 669,152 694,152C751,152 800,125 800,53C800,-3 768,-46 697,-46C685,-46 671,-45 656,-42l-39,-151C649,-200 679,-203 708,-203C881,-203 995,-91 995,62C995,208 890,301 731,301C696,301 659,297 619,287z"
   id="glyph1250" />
<glyph
   unicode="Ҩ"
   horiz-adv-x="978"
   d="M936,-8l-13,130C886,111 850,105 815,105C804,105 792,106 781,107C870,183 928,293 928,424C928,606 819,718 649,718C470,718 355,594 355,400C355,288 394,191 458,118C334,128 234,217 234,374C234,472 274,572 344,643l-161,75C86,637 35,514 35,382C35,123 227,-16 448,-16C503,-16 558,-7 610,10C666,-14 729,-27 795,-27C841,-27 888,-21 936,-8M645,573C715,573 754,516 754,413C754,295 708,210 637,162C571,214 529,298 529,405C529,511 571,573 645,573z"
   id="glyph1252" />
<glyph
   unicode="ҩ"
   horiz-adv-x="848"
   d="M807,-11l-8,125C765,106 732,102 701,103C766,163 804,243 804,333C804,473 710,558 562,558C405,558 309,462 309,312C309,237 333,171 374,118C275,132 218,196 218,294C218,365 248,432 301,488l-153,71C70,497 29,401 29,300C29,107 172,-13 384,-13C434,-13 481,-6 524,6C575,-15 631,-26 689,-26C728,-26 768,-21 807,-11M559,420C610,420 638,388 638,321C638,244 607,185 552,150C504,187 475,243 475,316C475,384 505,420 559,420z"
   id="glyph1254" />
<glyph
   unicode="Ҫ"
   horiz-adv-x="731"
   d="M426,150C311,150 231,230 231,350C231,470 311,550 426,550C493,550 547,521 591,468l126,114C649,667 545,714 416,714C194,714 31,563 31,350C31,176 140,43 302,0l0,-141l182,0l0,132C582,4 661,48 717,118l-126,114C547,179 493,150 426,150z"
   id="glyph1256" />
<glyph
   unicode="ҫ"
   horiz-adv-x="605"
   d="M335,142C269,142 217,188 217,272C217,354 269,400 335,400C379,400 417,378 443,327l147,75C553,496 459,551 336,551C154,551 25,435 25,272C25,142 105,43 227,6l0,-110l177,0l0,101C493,14 560,64 590,140l-147,75C417,164 379,142 335,142z"
   id="glyph1258" />
<glyph
   unicode="Ҭ"
   horiz-adv-x="655"
   d="M639,543l0,157l-624,0l0,-157l215,0l0,-543l108,0l0,-141l182,0l0,298l-95,0l0,386z"
   id="glyph1260" />
<glyph
   unicode="ҭ"
   horiz-adv-x="558"
   d="M548,391l0,151l-538,0l0,-151l175,0l0,-391l89,0l0,-104l176,0l0,256l-76,0l0,239z"
   id="glyph1262" />
<glyph
   unicode="Ү"
   horiz-adv-x="738"
   d="M736,700l-192,0l-167,-278l-165,278l-210,0l268,-448l0,-252l198,0l0,251z"
   id="glyph1264" />
<glyph
   unicode="ү"
   horiz-adv-x="641"
   d="M642,542l-180,0l-137,-331l-130,331l-196,0l225,-543l0,-193l190,0l0,194z"
   id="glyph1266" />
<glyph
   unicode="Ұ"
   horiz-adv-x="738"
   d="M736,700l-192,0l-167,-278l-165,278l-210,0l233,-389l-98,0l0,-99l133,0l0,-212l198,0l0,212l123,0l0,99l-87,0z"
   id="glyph1268" />
<glyph
   unicode="ұ"
   horiz-adv-x="641"
   d="M642,542l-180,0l-137,-331l-130,331l-196,0l202,-487l-133,0l0,-99l156,0l0,-150l190,0l0,150l156,0l0,99l-133,0z"
   id="glyph1270" />
<glyph
   unicode="Ҳ"
   horiz-adv-x="780"
   d="M641,157l-143,209l230,335l-230,0l-124,-190l-125,190l-227,0l233,-344l-249,-357l228,0l140,207l141,-207l67,0l0,-141l182,0l0,298z"
   id="glyph1272" />
<glyph
   unicode="ҳ"
   horiz-adv-x="624"
   d="M514,148l-97,130l200,264l-201,0l-100,-137l-96,137l-214,0l200,-271l-206,-271l206,0l104,142l97,-142l71,0l0,-105l171,0l0,253z"
   id="glyph1274" />
<glyph
   unicode="Ҵ"
   horiz-adv-x="1005"
   d="M890,157l0,543l-195,0l0,-543l-269,0l0,386l163,0l0,157l-573,0l0,-157l215,0l0,-543l574,0l0,-143l181,0l0,300z"
   id="glyph1276" />
<glyph
   unicode="ҵ"
   horiz-adv-x="814"
   d="M726,152l0,390l-189,0l0,-390l-163,0l0,239l100,0l0,151l-464,0l0,-151l175,0l0,-391l434,0l0,-104l176,0l0,256z"
   id="glyph1278" />
<glyph
   unicode="Ҷ"
   horiz-adv-x="797"
   d="M682,157l0,543l-195,0l0,-304C452,380 409,372 363,372C276,372 231,416 231,507l0,193l-195,0l0,-215C36,307 142,211 338,211C384,211 433,220 487,238l0,-238l108,0l0,-141l182,0l0,298z"
   id="glyph1280" />
<glyph
   unicode="ҷ"
   horiz-adv-x="685"
   d="M583,152l0,390l-189,0l0,-217C367,311 336,303 300,303C247,303 218,325 218,387l0,155l-190,0l0,-168C28,225 106,162 256,162C313,162 359,175 394,193l0,-193l89,0l0,-104l176,0l0,256z"
   id="glyph1282" />
<glyph
   unicode="Ҹ"
   horiz-adv-x="757"
   d="M487,700l0,-304C462,385 434,377 403,374l0,108l-89,0l0,-104C259,392 231,435 231,507l0,193l-195,0l0,-215C36,314 133,219 314,211l0,-107l89,0l0,113C430,221 458,228 487,238l0,-238l195,0l0,700z"
   id="glyph1284" />
<glyph
   unicode="ҹ"
   horiz-adv-x="647"
   d="M394,542l0,-217C377,316 358,310 338,306l0,84l-75,0l-1,-82C233,318 218,342 218,387l0,155l-190,0l0,-168C28,225 106,162 256,162l5,0l-1,-76l78,0l0,86C359,177 378,184 394,193l0,-193l189,0l0,542z"
   id="glyph1286" />
<glyph
   unicode="Һ"
   horiz-adv-x="757"
   d="M419,489C373,489 324,480 270,462l0,238l-195,0l0,-700l195,0l0,304C305,320 348,328 394,328C481,328 526,284 526,193l0,-193l195,0l0,215C721,393 615,489 419,489z"
   id="glyph1288" />
<glyph
   unicode="һ"
   horiz-adv-x="691"
   d="M417,551C353,551 296,531 254,492l0,250l-190,0l0,-742l190,0l0,262C254,352 301,390 362,390C417,390 451,357 451,279l0,-279l190,0l0,310C641,478 544,551 417,551z"
   id="glyph1290" />
<glyph
   unicode="Ҽ"
   horiz-adv-x="1033"
   d="M1006,355C1006,589 825,714 635,714C460,714 288,608 259,411C205,411 180,442 180,483C180,507 188,534 204,560l-159,27C27,544 19,504 19,467C19,354 99,277 233,277l27,0C294,87 463,-14 640,-14C753,-14 869,27 953,110l-143,117C761,174 700,149 643,149C564,149 492,195 465,277l533,0C1003,302 1006,329 1006,355M634,553C710,553 781,503 801,411l-340,0C483,502 557,553 634,553z"
   id="glyph1292" />
<glyph
   unicode="ҽ"
   horiz-adv-x="840"
   d="M819,270C819,449 685,551 520,551C365,551 244,459 219,323C181,323 161,344 161,377C161,394 167,414 178,435l-144,25C21,424 14,391 14,362C14,273 77,223 198,223l21,0C243,87 365,-9 542,-9C647,-9 725,21 778,79l-102,104C638,151 602,136 548,136C477,136 428,168 412,223l403,0C817,238 819,256 819,270M522,416C583,416 625,380 636,323l-227,0C419,380 462,416 522,416z"
   id="glyph1294" />
<glyph
   unicode="Ҿ"
   horiz-adv-x="1033"
   d="M1006,355C1006,589 825,714 635,714C460,714 288,608 259,411C205,411 180,442 180,483C180,507 188,534 204,560l-159,27C27,544 19,504 19,467C19,354 99,277 233,277l27,0C289,118 411,22 553,-6l0,-135l182,0l0,137C816,12 893,50 953,110l-143,117C761,174 700,149 643,149C564,149 492,195 465,277l533,0C1003,302 1006,329 1006,355M634,553C710,553 781,503 801,411l-340,0C483,502 557,553 634,553z"
   id="glyph1296" />
<glyph
   unicode="ҿ"
   horiz-adv-x="840"
   d="M819,270C819,449 685,551 520,551C365,551 244,459 219,323C181,323 161,344 161,377C161,394 167,414 178,435l-144,25C21,424 14,391 14,362C14,273 77,223 198,223l21,0C237,117 315,35 433,4l0,-108l177,0l0,100C681,6 737,34 778,79l-102,104C638,151 602,136 548,136C477,136 428,168 412,223l403,0C817,238 819,256 819,270M522,416C583,416 625,380 636,323l-227,0C419,380 462,416 522,416z"
   id="glyph1298" />
<glyph
   unicode="Ӏ"
   horiz-adv-x="348"
   d="M75,0l198,0l0,700l-198,0z"
   id="glyph1300" />
<glyph
   unicode="Ӂ"
   horiz-adv-x="1109"
   d="M555,742C700,742 762,800 762,905l-133,0C628,859 605,836 555,836C505,836 484,859 483,905l-133,0C350,800 410,742 555,742M871,0l228,0l-199,367l187,333l-207,0l-143,-272l-85,0l0,272l-194,0l0,-272l-89,0l-140,272l-208,0l187,-333l-199,-367l229,0l137,268l83,0l0,-268l194,0l0,268l83,0z"
   id="glyph1302" />
<glyph
   unicode="ӂ"
   horiz-adv-x="950"
   d="M476,594C605,594 666,647 666,759l-125,0C541,715 520,689 475,689C429,689 412,715 411,759l-123,0C289,647 348,594 476,594M723,0l225,0l-164,280l152,262l-201,0l-107,-200l-59,0l0,200l-187,0l0,-200l-61,0l-106,200l-201,0l151,-262l-163,-280l225,0l98,193l57,0l0,-193l187,0l0,193l56,0z"
   id="glyph1304" />
<glyph
   unicode="Ӄ"
   horiz-adv-x="761"
   d="M526,365l215,335l-207,0l-167,-272l-94,0l0,272l-198,0l0,-700l198,0l0,268l97,0C452,177 527,68 527,5C527,-33 509,-53 480,-53C465,-53 448,-48 430,-40l-45,-137C428,-197 474,-207 524,-207C661,-207 744,-130 744,-1C744,102 661,214 526,365z"
   id="glyph1306" />
<glyph
   unicode="ӄ"
   horiz-adv-x="667"
   d="M656,542l-201,0l-133,-200l-68,0l0,200l-190,0l0,-542l190,0l0,193l87,0C415,117 465,49 465,0C465,-37 444,-57 411,-57C394,-57 376,-52 356,-42l-47,-133C354,-194 401,-204 445,-204C564,-204 656,-136 656,-9C656,82 595,175 481,294z"
   id="glyph1308" />
<glyph
   unicode="ӆ"
   horiz-adv-x="710"
   d="M616,152l0,390l-490,0l-8,-226C114,223 107,153 41,153C34,153 26,154 17,155l-8,-155C44,-8 75,-13 101,-13C242,-13 277,113 285,308l4,83l137,0l0,-391l68,0l-20,-104l150,0l74,256z"
   id="glyph1310" />
<glyph
   unicode="Ӈ"
   horiz-adv-x="813"
   d="M381,-174C425,-194 472,-205 518,-205C634,-205 738,-138 738,4l0,696l-195,0l0,-276l-273,0l0,276l-195,0l0,-700l195,0l0,267l273,0l0,-260C543,-34 517,-55 482,-55C465,-55 447,-50 428,-40z"
   id="glyph1312" />
<glyph
   unicode="ӈ"
   horiz-adv-x="703"
   d="M421,-203C560,-203 639,-118 639,12l0,530l-189,0l0,-201l-197,0l0,201l-189,0l0,-542l189,0l0,190l197,0l0,-175C450,-35 427,-57 393,-57C372,-57 352,-51 336,-41l-47,-133C322,-193 371,-203 421,-203z"
   id="glyph1314" />
<glyph
   unicode="Ӊ"
   horiz-adv-x="861"
   d="M741,157l0,543l-198,0l0,-263l-270,0l0,263l-198,0l0,-700l198,0l0,273l270,0l0,-273l84,0l-25,-141l155,0l85,298z"
   id="glyph1316" />
<glyph
   unicode="ӊ"
   horiz-adv-x="733"
   d="M638,152l0,390l-190,0l0,-201l-195,0l0,201l-189,0l0,-542l189,0l0,190l195,0l0,-190l68,0l-20,-104l150,0l74,256z"
   id="glyph1318" />
<glyph
   unicode="Ӌ"
   horiz-adv-x="752"
   d="M482,700l0,-264C447,421 405,413 360,413C273,413 228,453 228,531l0,169l-195,0l0,-191C33,342 139,253 335,253C381,253 429,261 482,279l0,-122l-128,0l0,-298l182,0l0,141l141,0l0,700z"
   id="glyph1320" />
<glyph
   unicode="ӌ"
   horiz-adv-x="643"
   d="M389,542l0,-184C362,345 331,337 296,337C242,337 213,359 213,420l0,122l-189,0l0,-134C24,259 102,195 251,195C309,195 354,208 389,226l0,-83l-92,0l0,-247l177,0l0,104l105,0l0,542z"
   id="glyph1322" />
<glyph
   unicode="Ӎ"
   horiz-adv-x="1027"
   d="M889,157l-2,543l-163,0l-240,-404l-246,404l-163,0l0,-700l182,0l0,363l180,-294l88,0l180,302l1,-371l89,0l-25,-141l155,0l85,298z"
   id="glyph1324" />
<glyph
   unicode="ӎ"
   horiz-adv-x="875"
   d="M761,152l-1,390l-179,0l-166,-283l-151,283l-200,0l0,-542l171,0l0,289l135,-241l81,0l139,237l0,-285l68,0l-20,-104l150,0l74,256z"
   id="glyph1326" />
<glyph
   unicode="ӏ"
   horiz-adv-x="318"
   d="M64,0l190,0l0,742l-190,0z"
   id="glyph1328" />
<glyph
   unicode="Ӑ"
   horiz-adv-x="824"
   d="M411,742C556,742 618,800 618,905l-133,0C484,859 461,836 411,836C361,836 340,859 339,905l-133,0C206,800 266,742 411,742M613,0l206,0l-310,700l-195,0l-309,-700l202,0l55,136l296,0M320,282l90,224l90,-224z"
   id="glyph1330" />
<glyph
   unicode="ӑ"
   horiz-adv-x="612"
   d="M306,594C435,594 496,647 496,759l-125,0C371,715 350,689 305,689C259,689 242,715 241,759l-123,0C119,647 178,594 306,594M285,551C200,551 108,529 46,488l64,-129C147,388 205,406 257,406C332,406 369,375 372,320l-108,0C96,320 23,258 23,158C23,64 95,-9 225,-9C304,-9 358,18 385,70l0,-70l177,0l0,301C562,473 461,551 285,551M278,111C233,111 207,134 207,166C207,199 229,221 290,221l82,0l0,-47C357,131 320,111 278,111z"
   id="glyph1332" />
<glyph
   unicode="Ӓ"
   horiz-adv-x="824"
   d="M306,756C351,756 385,787 385,834C385,881 351,913 306,913C261,913 227,881 227,834C227,787 261,756 306,756M518,756C563,756 597,787 597,834C597,881 563,913 518,913C473,913 439,881 439,834C439,787 473,756 518,756M613,0l206,0l-310,700l-195,0l-309,-700l202,0l55,136l296,0M320,282l90,224l90,-224z"
   id="glyph1334" />
<glyph
   unicode="ӓ"
   horiz-adv-x="612"
   d="M200,606C245,606 279,637 279,684C279,731 245,763 200,763C155,763 121,731 121,684C121,637 155,606 200,606M412,606C457,606 491,637 491,684C491,731 457,763 412,763C367,763 333,731 333,684C333,637 367,606 412,606M285,551C200,551 108,529 46,488l64,-129C147,388 205,406 257,406C332,406 369,375 372,320l-108,0C96,320 23,258 23,158C23,64 95,-9 225,-9C304,-9 358,18 385,70l0,-70l177,0l0,301C562,473 461,551 285,551M278,111C233,111 207,134 207,166C207,199 229,221 290,221l82,0l0,-47C357,131 320,111 278,111z"
   id="glyph1336" />
<glyph
   unicode="Ӕ"
   horiz-adv-x="1115"
   d="M710,153l0,128l311,0l0,148l-311,0l0,118l353,0l0,153l-678,0l-382,-700l202,0l71,136l238,0l0,-136l562,0l0,153M353,282l138,265l23,0l0,-265z"
   id="glyph1338" />
<glyph
   unicode="ӕ"
   horiz-adv-x="993"
   d="M964,274C964,448 831,551 676,551C600,551 532,526 481,483C436,529 368,551 283,551C197,551 107,529 45,488l64,-129C146,388 202,406 257,406C330,406 367,374 371,322l-108,0C95,322 22,258 22,164C22,61 110,-9 258,-9C339,-9 413,12 462,79C521,17 605,-9 695,-9C792,-9 870,21 924,79l-100,104C785,151 747,136 698,136C629,136 582,168 567,222l394,0C963,237 964,254 964,274M673,416C727,416 772,382 782,322l-219,0C574,382 620,416 673,416M279,111C232,111 206,133 206,168C206,200 227,222 289,222l82,0l0,-22C371,146 337,111 279,111z"
   id="glyph1340" />
<glyph
   unicode="Ӗ"
   horiz-adv-x="675"
   d="M349,742C494,742 556,800 556,905l-133,0C422,859 399,836 349,836C299,836 278,859 277,905l-133,0C144,800 204,742 349,742M271,153l0,128l311,0l0,148l-311,0l0,118l353,0l0,153l-549,0l0,-700l562,0l0,153z"
   id="glyph1342" />
<glyph
   unicode="ӗ"
   horiz-adv-x="649"
   d="M319,594C448,594 509,647 509,759l-125,0C384,715 363,689 318,689C272,689 255,715 254,759l-123,0C132,647 191,594 319,594M613,270C613,449 483,551 323,551C152,551 25,435 25,272C25,110 150,-9 343,-9C446,-9 522,21 574,79l-100,104C437,151 402,136 349,136C279,136 232,168 216,223l394,0C611,238 613,256 613,270M324,416C383,416 425,380 435,323l-222,0C224,380 265,416 324,416z"
   id="glyph1344" />
<glyph
   unicode="Ә"
   horiz-adv-x="819"
   d="M396,714C283,714 165,673 80,590l143,-117C273,526 335,551 394,551C475,551 549,504 576,421l-541,0C29,395 27,371 27,345C27,111 209,-14 402,-14C597,-14 787,114 787,351C787,588 596,714 396,714M402,147C323,147 250,198 231,292l350,0C558,199 483,147 402,147z"
   id="glyph1346" />
<glyph
   unicode="ә"
   horiz-adv-x="650"
   d="M307,551C204,551 128,521 76,463l100,-104C213,391 248,406 301,406C371,406 418,374 434,319l-394,0C39,304 37,286 37,272C37,93 167,-9 327,-9C498,-9 625,107 625,270C625,432 500,551 307,551M326,126C267,126 225,162 215,219l222,0C426,162 385,126 326,126z"
   id="glyph1348" />
<glyph
   unicode="Ӛ"
   horiz-adv-x="819"
   d="M304,756C349,756 383,787 383,834C383,881 349,913 304,913C259,913 225,881 225,834C225,787 259,756 304,756M516,756C561,756 595,787 595,834C595,881 561,913 516,913C471,913 437,881 437,834C437,787 471,756 516,756M396,714C283,714 165,673 80,590l143,-117C273,526 335,551 394,551C475,551 549,504 576,421l-541,0C29,395 27,371 27,345C27,111 209,-14 402,-14C597,-14 787,114 787,351C787,588 596,714 396,714M402,147C323,147 250,198 231,292l350,0C558,199 483,147 402,147z"
   id="glyph1350" />
<glyph
   unicode="ӛ"
   horiz-adv-x="650"
   d="M225,606C270,606 304,637 304,684C304,731 270,763 225,763C180,763 146,731 146,684C146,637 180,606 225,606M437,606C482,606 516,637 516,684C516,731 482,763 437,763C392,763 358,731 358,684C358,637 392,606 437,606M307,551C204,551 128,521 76,463l100,-104C213,391 248,406 301,406C371,406 418,374 434,319l-394,0C39,304 37,286 37,272C37,93 167,-9 327,-9C498,-9 625,107 625,270C625,432 500,551 307,551M326,126C267,126 225,162 215,219l222,0C426,162 385,126 326,126z"
   id="glyph1352" />
<glyph
   unicode="Ӝ"
   horiz-adv-x="1109"
   d="M450,756C495,756 529,787 529,834C529,881 495,913 450,913C405,913 371,881 371,834C371,787 405,756 450,756M662,756C707,756 741,787 741,834C741,881 707,913 662,913C617,913 583,881 583,834C583,787 617,756 662,756M871,0l228,0l-199,367l187,333l-207,0l-143,-272l-85,0l0,272l-194,0l0,-272l-89,0l-140,272l-208,0l187,-333l-199,-367l229,0l137,268l83,0l0,-268l194,0l0,268l83,0z"
   id="glyph1354" />
<glyph
   unicode="ӝ"
   horiz-adv-x="950"
   d="M370,606C415,606 449,637 449,684C449,731 415,763 370,763C325,763 291,731 291,684C291,637 325,606 370,606M582,606C627,606 661,637 661,684C661,731 627,763 582,763C537,763 503,731 503,684C503,637 537,606 582,606M723,0l225,0l-164,280l152,262l-201,0l-107,-200l-59,0l0,200l-187,0l0,-200l-61,0l-106,200l-201,0l151,-262l-163,-280l225,0l98,193l57,0l0,-193l187,0l0,193l56,0z"
   id="glyph1356" />
<glyph
   unicode="Ӟ"
   horiz-adv-x="664"
   d="M220,756C265,756 299,787 299,834C299,881 265,913 220,913C175,913 141,881 141,834C141,787 175,756 220,756M432,756C477,756 511,787 511,834C511,881 477,913 432,913C387,913 353,881 353,834C353,787 387,756 432,756M508,364C567,393 604,446 604,512C604,642 454,716 284,716C202,716 115,699 38,662l58,-150C156,544 225,560 282,560C351,560 404,536 404,489C404,453 374,430 320,430l-163,0l0,-145l179,0C392,285 432,267 432,224C432,170 366,142 282,142C218,142 143,158 78,191l-59,-138C110,7 211,-15 304,-15C482,-15 632,63 632,197C632,274 585,335 508,364z"
   id="glyph1358" />
<glyph
   unicode="ӟ"
   horiz-adv-x="572"
   d="M179,606C224,606 258,637 258,684C258,731 224,763 179,763C134,763 100,731 100,684C100,637 134,606 179,606M391,606C436,606 470,637 470,684C470,731 436,763 391,763C346,763 312,731 312,684C312,637 346,606 391,606M446,281C496,306 529,348 529,399C529,499 412,553 264,553C189,553 108,536 31,504l45,-125C137,402 194,415 248,415C310,415 337,399 337,372C337,345 315,331 270,331l-100,0l0,-111l117,0C331,220 352,207 352,178C352,145 313,128 254,128C187,128 123,139 63,164l-49,-128C90,3 177,-11 260,-11C418,-11 544,52 544,163C544,219 508,261 446,281z"
   id="glyph1360" />
<glyph
   unicode="Ӡ"
   horiz-adv-x="646"
   d="M424,420l154,156l0,124l-526,0l0,-153l295,0l-133,-135l0,-125l84,0C380,287 416,261 416,219C416,172 368,145 293,145C223,145 145,166 86,203l-65,-148C91,10 199,-14 300,-14C520,-14 616,99 616,220C616,320 551,397 424,420z"
   id="glyph1362" />
<glyph
   unicode="ӡ"
   horiz-adv-x="569"
   d="M368,248l146,170l0,124l-501,0l0,-153l279,0l-128,-150l0,-124l83,0C323,115 354,85 354,38C354,-14 310,-43 242,-43C176,-43 104,-22 48,19l-66,-149C51,-177 152,-203 249,-203C457,-203 550,-87 550,38C550,144 487,224 368,248z"
   id="glyph1364" />
<glyph
   unicode="Ӣ"
   horiz-adv-x="820"
   d="M213,782l394,0l0,102l-394,0M75,0l187,0l288,410l0,-410l195,0l0,700l-186,0l-289,-411l0,411l-195,0z"
   id="glyph1366" />
<glyph
   unicode="ӣ"
   horiz-adv-x="719"
   d="M150,632l394,0l0,102l-394,0M64,0l176,0l225,285l0,-285l190,0l0,542l-175,0l-227,-284l0,284l-189,0z"
   id="glyph1368" />
<glyph
   unicode="Ӥ"
   horiz-adv-x="820"
   d="M304,756C349,756 383,787 383,834C383,881 349,913 304,913C259,913 225,881 225,834C225,787 259,756 304,756M516,756C561,756 595,787 595,834C595,881 561,913 516,913C471,913 437,881 437,834C437,787 471,756 516,756M75,0l187,0l288,410l0,-410l195,0l0,700l-186,0l-289,-411l0,411l-195,0z"
   id="glyph1370" />
<glyph
   unicode="ӥ"
   horiz-adv-x="719"
   d="M241,606C286,606 320,637 320,684C320,731 286,763 241,763C196,763 162,731 162,684C162,637 196,606 241,606M453,606C498,606 532,637 532,684C532,731 498,763 453,763C408,763 374,731 374,684C374,637 408,606 453,606M64,0l176,0l225,285l0,-285l190,0l0,542l-175,0l-227,-284l0,284l-189,0z"
   id="glyph1372" />
<glyph
   unicode="Ӧ"
   horiz-adv-x="839"
   d="M313,756C358,756 392,787 392,834C392,881 358,913 313,913C268,913 234,881 234,834C234,787 268,756 313,756M525,756C570,756 604,787 604,834C604,881 570,913 525,913C480,913 446,881 446,834C446,787 480,756 525,756M419,-14C643,-14 808,140 808,350C808,560 643,714 419,714C195,714 30,560 30,350C30,140 195,-14 419,-14M419,150C313,150 230,229 230,350C230,471 313,550 419,550C525,550 608,471 608,350C608,229 525,150 419,150z"
   id="glyph1374" />
<glyph
   unicode="ӧ"
   horiz-adv-x="662"
   d="M223,606C268,606 302,637 302,684C302,731 268,763 223,763C178,763 144,731 144,684C144,637 178,606 223,606M435,606C480,606 514,637 514,684C514,731 480,763 435,763C390,763 356,731 356,684C356,637 390,606 435,606M331,-9C510,-9 637,108 637,272C637,435 510,551 331,551C154,551 25,435 25,272C25,108 154,-9 331,-9M331,142C267,142 217,189 217,272C217,354 267,400 331,400C396,400 445,354 445,272C445,189 396,142 331,142z"
   id="glyph1376" />
<glyph
   unicode="Ө"
   horiz-adv-x="839"
   d="M420,714C195,714 31,560 31,350C31,140 195,-14 420,-14C644,-14 808,140 808,350C808,560 644,714 420,714M420,550C507,550 578,496 601,410l-363,0C261,496 332,550 420,550M420,150C333,150 262,203 239,288l361,0C577,203 507,150 420,150z"
   id="glyph1378" />
<glyph
   unicode="ө"
   horiz-adv-x="668"
   d="M334,551C153,551 24,436 24,272C24,108 153,-9 334,-9C514,-9 643,108 643,272C643,436 514,551 334,551M334,419C393,419 437,385 455,330l-242,0C230,386 274,419 334,419M334,124C275,124 232,157 214,212l240,0C436,157 393,124 334,124z"
   id="glyph1380" />
<glyph
   unicode="Ӫ"
   horiz-adv-x="839"
   d="M314,756C359,756 393,787 393,834C393,881 359,913 314,913C269,913 235,881 235,834C235,787 269,756 314,756M526,756C571,756 605,787 605,834C605,881 571,913 526,913C481,913 447,881 447,834C447,787 481,756 526,756M420,714C195,714 31,560 31,350C31,140 195,-14 420,-14C644,-14 808,140 808,350C808,560 644,714 420,714M420,550C507,550 578,496 601,410l-363,0C261,496 332,550 420,550M420,150C333,150 262,203 239,288l361,0C577,203 507,150 420,150z"
   id="glyph1382" />
<glyph
   unicode="ӫ"
   horiz-adv-x="668"
   d="M228,606C273,606 307,637 307,684C307,731 273,763 228,763C183,763 149,731 149,684C149,637 183,606 228,606M440,606C485,606 519,637 519,684C519,731 485,763 440,763C395,763 361,731 361,684C361,637 395,606 440,606M334,551C153,551 24,436 24,272C24,108 153,-9 334,-9C514,-9 643,108 643,272C643,436 514,551 334,551M334,419C393,419 437,385 455,330l-242,0C230,386 274,419 334,419M334,124C275,124 232,157 214,212l240,0C436,157 393,124 334,124z"
   id="glyph1384" />
<glyph
   unicode="Ӭ"
   horiz-adv-x="718"
   d="M229,756C274,756 308,787 308,834C308,881 274,913 229,913C184,913 150,881 150,834C150,787 184,756 229,756M441,756C486,756 520,787 520,834C520,881 486,913 441,913C396,913 362,881 362,834C362,787 396,756 441,756M317,714C187,714 82,667 14,582l125,-114C184,521 239,550 307,550C390,550 451,503 474,426l-251,0l0,-146l253,0C454,200 392,150 307,150C239,150 184,179 139,232l-125,-114C82,33 187,-14 317,-14C532,-14 686,137 686,350C686,563 532,714 317,714z"
   id="glyph1386" />
<glyph
   unicode="ӭ"
   horiz-adv-x="600"
   d="M180,606C225,606 259,637 259,684C259,731 225,763 180,763C135,763 101,731 101,684C101,637 135,606 180,606M392,606C437,606 471,637 471,684C471,731 437,763 392,763C347,763 313,731 313,684C313,637 347,606 392,606M264,554C154,554 66,516 9,448l109,-99C155,390 200,413 256,413C319,413 367,384 388,336l-201,0l0,-126l202,0C368,160 320,130 256,130C200,130 155,153 118,194l-109,-100C66,26 154,-12 264,-12C446,-12 575,105 575,272C575,437 446,554 264,554z"
   id="glyph1388" />
<glyph
   unicode="Ӯ"
   horiz-adv-x="743"
   d="M567,884l-394,0l0,-102l394,0M547,700l-169,-338l-163,338l-209,0l272,-504C252,158 224,142 185,142C164,142 142,146 115,154l-47,-146C111,-9 152,-18 192,-18C297,-18 388,42 450,159l290,541z"
   id="glyph1390" />
<glyph
   unicode="ӯ"
   horiz-adv-x="640"
   d="M507,734l-394,0l0,-102l394,0M461,542l-134,-331l-133,331l-195,0l232,-549C215,-39 194,-53 157,-53C127,-53 95,-41 73,-21l-66,-133C43,-184 107,-203 164,-203C271,-203 351,-162 408,-22l234,564z"
   id="glyph1392" />
<glyph
   unicode="Ӱ"
   horiz-adv-x="743"
   d="M264,756C309,756 343,787 343,834C343,881 309,913 264,913C219,913 185,881 185,834C185,787 219,756 264,756M476,756C521,756 555,787 555,834C555,881 521,913 476,913C431,913 397,881 397,834C397,787 431,756 476,756M547,700l-169,-338l-163,338l-209,0l272,-504C252,158 224,142 185,142C164,142 142,146 115,154l-47,-146C111,-9 152,-18 192,-18C297,-18 388,42 450,159l290,541z"
   id="glyph1394" />
<glyph
   unicode="ӱ"
   horiz-adv-x="640"
   d="M204,606C249,606 283,637 283,684C283,731 249,763 204,763C159,763 125,731 125,684C125,637 159,606 204,606M416,606C461,606 495,637 495,684C495,731 461,763 416,763C371,763 337,731 337,684C337,637 371,606 416,606M461,542l-134,-331l-133,331l-195,0l232,-549C215,-39 194,-53 157,-53C127,-53 95,-41 73,-21l-66,-133C43,-184 107,-203 164,-203C271,-203 351,-162 408,-22l234,564z"
   id="glyph1396" />
<glyph
   unicode="Ӳ"
   horiz-adv-x="743"
   d="M428,909l-170,0l-63,-152l132,0M545,757l100,152l-170,0l-62,-152M547,700l-169,-338l-163,338l-209,0l272,-504C252,158 224,142 185,142C164,142 142,146 115,154l-47,-146C111,-9 152,-18 192,-18C297,-18 388,42 450,159l290,541z"
   id="glyph1398" />
<glyph
   unicode="ӳ"
   horiz-adv-x="640"
   d="M368,759l-170,0l-63,-152l132,0M485,607l100,152l-170,0l-62,-152M461,542l-134,-331l-133,331l-195,0l232,-549C215,-39 194,-53 157,-53C127,-53 95,-41 73,-21l-66,-133C43,-184 107,-203 164,-203C271,-203 351,-162 408,-22l234,564z"
   id="glyph1400" />
<glyph
   unicode="Ӵ"
   horiz-adv-x="757"
   d="M258,756C303,756 337,787 337,834C337,881 303,913 258,913C213,913 179,881 179,834C179,787 213,756 258,756M470,756C515,756 549,787 549,834C549,881 515,913 470,913C425,913 391,881 391,834C391,787 425,756 470,756M487,700l0,-304C452,380 409,372 363,372C276,372 231,416 231,507l0,193l-195,0l0,-215C36,307 142,211 338,211C384,211 433,220 487,238l0,-238l195,0l0,700z"
   id="glyph1402" />
<glyph
   unicode="ӵ"
   horiz-adv-x="647"
   d="M196,606C241,606 275,637 275,684C275,731 241,763 196,763C151,763 117,731 117,684C117,637 151,606 196,606M408,606C453,606 487,637 487,684C487,731 453,763 408,763C363,763 329,731 329,684C329,637 363,606 408,606M394,542l0,-217C367,311 336,303 300,303C247,303 218,325 218,387l0,155l-190,0l0,-168C28,225 106,162 256,162C313,162 359,175 394,193l0,-193l189,0l0,542z"
   id="glyph1404" />
<glyph
   unicode="Ӷ"
   horiz-adv-x="602"
   d="M587,543l1,157l-513,0l0,-700l108,0l0,-141l182,0l0,298l-95,0l0,386z"
   id="glyph1406" />
<glyph
   unicode="ӷ"
   horiz-adv-x="528"
   d="M518,391l0,151l-454,0l0,-542l89,0l0,-104l176,0l0,256l-76,0l0,239z"
   id="glyph1408" />
<glyph
   unicode="Ӹ"
   horiz-adv-x="1049"
   d="M422,756C467,756 501,787 501,834C501,881 467,913 422,913C377,913 343,881 343,834C343,787 377,756 422,756M634,756C679,756 713,787 713,834C713,881 679,913 634,913C589,913 555,881 555,834C555,787 589,756 634,756M432,477l-162,0l0,223l-195,0l0,-700l331,0C588,0 701,85 701,249C701,402 602,477 432,477M778,0l195,0l0,700l-195,0M393,142l-123,0l0,194l123,0C460,336 502,311 502,245C502,179 459,142 393,142z"
   id="glyph1410" />
<glyph
   unicode="ӹ"
   horiz-adv-x="889"
   d="M341,606C386,606 420,637 420,684C420,731 386,763 341,763C296,763 262,731 262,684C262,637 296,606 341,606M553,606C598,606 632,637 632,684C632,731 598,763 553,763C508,763 474,731 474,684C474,637 508,606 553,606M374,374l-121,0l0,168l-189,0l0,-542l286,0C504,-1 589,72 589,192C589,307 518,373 374,374M635,0l189,0l0,542l-189,0M331,130l-78,1l0,127l78,0C377,257 403,239 403,195C403,151 377,130 331,130z"
   id="glyph1412" />
<glyph
   unicode="Ӻ"
   horiz-adv-x="653"
   d="M632,543l0,157l-515,0l0,-323l-102,0l0,-115l102,0l0,-262l84,0C197,-43 172,-65 132,-65C116,-65 97,-61 77,-52l-43,-122C81,-195 129,-205 174,-205C294,-205 391,-133 391,5l0,113l-76,0l0,144l261,0l0,115l-261,0l0,166z"
   id="glyph1414" />
<glyph
   unicode="ӻ"
   horiz-adv-x="538"
   d="M520,391l0,151l-417,0l0,-232l-87,0l0,-107l87,0l0,-203l77,0C177,-46 154,-69 117,-69C99,-69 79,-63 61,-54l-42,-120C61,-193 107,-203 151,-203C279,-203 369,-124 369,11l0,106l-76,0l0,86l176,0l0,107l-176,0l0,81z"
   id="glyph1416" />
<glyph
   unicode="Ӽ"
   horiz-adv-x="745"
   d="M731,700l-214,0l-138,-201l-140,201l-224,0l245,-345l-254,-355l225,0l142,214C449,126 508,47 508,-2C508,-36 489,-54 459,-54C445,-54 429,-50 411,-42l-45,-135C410,-198 458,-208 503,-208C623,-208 725,-140 725,-12C725,86 636,200 492,368z"
   id="glyph1418" />
<glyph
   unicode="ӽ"
   horiz-adv-x="626"
   d="M619,542l-201,0l-99,-136l-97,136l-215,0l201,-270l-207,-272l208,0l116,153C390,80 428,28 428,-10C428,-38 407,-57 376,-57C359,-57 339,-51 319,-41l-47,-134C318,-194 365,-204 410,-204C525,-204 618,-140 618,-25C618,75 545,162 430,293z"
   id="glyph1420" />
<glyph
   unicode="Ӿ"
   horiz-adv-x="759"
   d="M543,303l125,0l0,116l-132,0l194,282l-229,0l-125,-190l-124,190l-227,0l191,-282l-131,0l0,-116l135,0l-211,-303l228,0l139,207l141,-207l234,0z"
   id="glyph1422" />
<glyph
   unicode="ӿ"
   horiz-adv-x="633"
   d="M628,0l-160,217l98,0l0,106l-110,0l165,219l-200,0l-100,-137l-95,137l-215,0l160,-219l-101,0l0,-106l99,0l-165,-217l206,0l104,141l96,-141z"
   id="glyph1424" />
<glyph
   unicode="Ԑ"
   horiz-adv-x="664"
   d="M586,191C521,158 446,142 381,142C297,142 232,170 232,224C232,267 271,285 327,285l180,0l0,145l-164,0C290,430 260,453 260,489C260,536 313,560 382,560C439,560 507,544 567,512l59,150C549,699 462,716 380,716C209,716 60,642 60,512C60,446 97,393 155,364C78,335 32,273 32,197C32,63 182,-15 360,-15C453,-15 554,7 645,53z"
   id="glyph1426" />
<glyph
   unicode="ԑ"
   horiz-adv-x="572"
   d="M509,164C449,139 385,128 318,128C259,128 220,145 220,178C220,207 241,220 285,220l117,0l0,111l-100,0C257,331 235,345 235,372C235,399 262,415 324,415C378,415 435,402 496,379l45,125C464,536 383,553 308,553C160,553 43,499 43,399C43,348 76,306 126,281C64,261 28,219 28,163C28,52 154,-11 312,-11C395,-11 482,3 558,36z"
   id="glyph1428" />
<glyph
   unicode="Ԓ"
   horiz-adv-x="803"
   d="M371,-174C415,-194 462,-205 508,-205C624,-205 728,-138 728,4l0,696l-564,0l-10,-279C148,263 132,159 52,159C43,159 34,160 24,162l-10,-162C47,-8 77,-12 103,-12C281,-12 319,156 328,429l3,114l202,0l0,-536C533,-34 507,-55 472,-55C455,-55 437,-50 418,-40z"
   id="glyph1430" />
<glyph
   unicode="ԓ"
   horiz-adv-x="681"
   d="M126,542l-8,-226C114,223 107,153 41,153C34,153 26,154 17,155l-8,-155C44,-8 75,-13 101,-13C242,-13 277,113 285,308l4,83l138,0l0,-376C427,-35 405,-57 369,-57C350,-57 329,-51 313,-41l-47,-133C299,-193 349,-203 396,-203C538,-203 617,-117 617,14l0,528z"
   id="glyph1432" />
<glyph
   unicode="Ԛ"
   horiz-adv-x="842"
   d="M758,21C727,-11 690,-28 652,-28C622,-28 598,-18 570,12C713,64 808,191 808,350C808,560 643,714 419,714C195,714 30,560 30,350C30,165 158,23 342,-8C459,-130 534,-169 648,-169C728,-169 797,-138 844,-81M230,350C230,471 313,550 419,550C525,550 608,471 608,350C608,229 525,150 419,150C313,150 230,229 230,350z"
   id="glyph1434" />
<glyph
   unicode="ԛ"
   horiz-adv-x="698"
   d="M453,542l0,-54C417,531 364,551 293,551C146,551 27,443 27,271C27,99 146,-9 293,-9C356,-9 407,10 444,48l0,-242l190,0l0,736M333,142C269,142 219,189 219,271C219,353 269,400 333,400C397,400 447,353 447,271C447,189 397,142 333,142z"
   id="glyph1436" />
<glyph
   unicode="Ԝ"
   horiz-adv-x="1152"
   d="M953,700l-143,-442l-135,442l-183,0l-141,-438l-137,438l-204,0l226,-700l208,0l135,424l129,-424l208,0l226,700z"
   id="glyph1438" />
<glyph
   unicode="ԝ"
   horiz-adv-x="989"
   d="M809,542l-114,-318l-108,318l-173,0l-114,-317l-107,317l-192,0l196,-542l197,0l102,299l100,-299l196,0l195,542z"
   id="glyph1440" />
<glyph
   unicode="Ԥ"
   horiz-adv-x="847"
   d="M732,157l0,543l-657,0l0,-700l195,0l0,543l266,0l0,-543l108,0l0,-141l182,0l0,298z"
   id="glyph1442" />
</font>
</defs>
</svg>
